  0
SECTION
  2
HEADER
  9
$ACADVER
  1
AC1012
  9
$DWGCODEPAGE
  3
dos932
  9
$INSBASE
 10
0.0
 20
0.0
 30
0.0
  9
$EXTMIN
 10
0.0000
 20
0.0000
 30
0.0000
  9
$EXTMAX
 10
1188.0000
 20
840.0000
 30
1800.000
  9
$LIMMIN
 10
0.0000
 20
0.0000
  9
$LIMMAX
 10
1188.0000
 20
840.0000
  9
$ORTHOMODE
 70
     0
  9
$REGENMODE
 70
     1
  9
$FILLMODE
 70
     1
  9
$QTEXTMODE
 70
     0
  9
$MIRRTEXT
 70
     1
  9
$DRAGMODE
 70
     2
  9
$LTSCALE
 40
1.0000
  9
$OSMODE
 70
     0
  9
$ATTMODE
 70
     1
  9
$TEXTSIZE
 40
3.5000
  9
$TRACEWID
 40
0.05
  9
$TEXTSTYLE
  7
STANDARD
  9
$CLAYER
  8
0
  9
$CELTYPE
  6
CONTINUOUS
  9
$CECOLOR
 62
   256
  9
$CELTSCALE
 40
10.0
  9
$DELOBJ
 70
     1
  9
$DISPSILH
 70
     0
  9
$DIMSCALE
 40
1.0000
  9
$DIMASZ
 40
3.0000
  9
$DIMEXO
 40
1.0000
  9
$DIMDLI
 40
3.0
  9
$DIMRND
 40
0.0
  9
$DIMDLE
 40
0.0
  9
$DIMEXE
 40
1.0000
  9
$DIMTP
 40
0.0
  9
$DIMTM
 40
0.0
  9
$DIMTXT
 40
3.0000
  9
$DIMCEN
 40
0.0
  9
$DIMTSZ
 40
0.0
  9
$DIMTOL
 70
     0
  9
$DIMLIM
 70
     0
  9
$DIMTIH
 70
     0
  9
$DIMTOH
 70
     0
  9
$DIMSE1
 70
     0
  9
$DIMSE2
 70
     0
  9
$DIMTAD
 70
     1
  9
$DIMZIN
 70
     8
  9
$DIMBLK
  1
_OPEN
  9
$DIMASO
 70
     1
  9
$DIMSHO
 70
     1
  9
$DIMPOST
  1

  9
$DIMAPOST
  1

  9
$DIMALT
 70
     0
  9
$DIMALTD
 70
     2
  9
$DIMALTF
 40
0.03937
  9
$DIMLFAC
 40
1.0
  9
$DIMTOFL
 70
     1
  9
$DIMTVP
 40
0.75
  9
$DIMTIX
 70
     0
  9
$DIMSOXD
 70
     0
  9
$DIMSAH
 70
     1
  9
$DIMBLK1
  1
_OPEN
  9
$DIMBLK2
  1
_OPEN
  9
$DIMSTYLE
  2
DIM1
  9
$DIMCLRD
 70
     3
  9
$DIMCLRE
 70
     3
  9
$DIMCLRT
 70
     0
  9
$DIMTFAC
 40
1.0000
  9
$DIMGAP
 40
1.5000
  9
$DIMJUST
 70
     0
  9
$DIMSD1
 70
     0
  9
$DIMSD2
 70
     0
  9
$DIMTOLJ
 70
     1
  9
$DIMTZIN
 70
     8
  9
$DIMALTZ
 70
     0
  9
$DIMALTTZ
 70
     0
  9
$DIMFIT
 70
     3
  9
$DIMUPT
 70
     1
  9
$DIMUNIT
 70
     2
  9
$DIMDEC
 70
     4
  9
$DIMTDEC
 70
     4
  9
$DIMALTU
 70
     2
  9
$DIMALTTD
 70
     2
  9
$DIMTXSTY
  7
STANDARD
  9
$DIMAUNIT
 70
     0
  9
$LUNITS
 70
     2
  9
$LUPREC
 70
     4
  9
$SKETCHINC
 40
0.1
  9
$FILLETRAD
 40
10.0
  9
$AUNITS
 70
     0
  9
$AUPREC
 70
     0
  9
$MENU
  1
acad
  9
$ELEVATION
 40
0.0
  9
$PELEVATION
 40
0.0
  9
$THICKNESS
 40
0.0
  9
$LIMCHECK
 70
     0
  9
$BLIPMODE
 70
     1
  9
$CHAMFERA
 40
10.0
  9
$CHAMFERB
 40
10.0
  9
$CHAMFERC
 40
20.0
  9
$CHAMFERD
 40
0.0
  9
$SKPOLY
 70
     0
  9
$TDCREATE
 40
2450901.470568402
  9
$TDUPDATE
 40
2450901.470568402
  9
$TDINDWG
 40
0.0000000000
  9
$TDUSRTIMER
 40
0.0000000000
  9
$USRTIMER
 70
     1
  9
$ANGBASE
 50
0.0
  9
$ANGDIR
 70
     0
  9
$PDMODE
 70
     0
  9
$PDSIZE
 40
0.0
  9
$PLINEWID
 40
0.0
  9
$COORDS
 70
     1
  9
$SPLFRAME
 70
     0
  9
$SPLINETYPE
 70
     6
  9
$SPLINESEGS
 70
     8
  9
$ATTDIA
 70
     0
  9
$ATTREQ
 70
     1
  9
$HANDLING
 70
     1
  9
$HANDSEED
  5
1000
  9
$SURFTAB1
 70
     6
  9
$SURFTAB2
 70
     6
  9
$SURFTYPE
 70
     6
  9
$SURFU
 70
     6
  9
$SURFV
 70
     6
  9
$UCSNAME
  2

  9
$UCSORG
 10
0.0
 20
0.0
 30
0.0
  9
$UCSXDIR
 10
1.0
 20
0.0
 30
0.0
  9
$UCSYDIR
 10
0.0
 20
1.0
 30
0.0
  9
$PUCSNAME
  2

  9
$PUCSORG
 10
0.0
 20
0.0
 30
0.0
  9
$PUCSXDIR
 10
1.0
 20
0.0
 30
0.0
  9
$PUCSYDIR
 10
0.0
 20
1.0
 30
0.0
  9
$USERI1
 70
     0
  9
$USERI2
 70
     0
  9
$USERI3
 70
     0
  9
$USERI4
 70
     0
  9
$USERI5
 70
     0
  9
$USERR1
 40
0.0
  9
$USERR2
 40
0.0
  9
$USERR3
 40
0.0
  9
$USERR4
 40
0.0
  9
$USERR5
 40
0.0
  9
$WORLDVIEW
 70
     1
  9
$SHADEDGE
 70
     3
  9
$SHADEDIF
 70
    70
  9
$TILEMODE
 70
     1
  9
$MAXACTVP
 70
    16
  9
$PINSBASE
 10
0.0
 20
0.0
 30
0.0
  9
$PLIMCHECK
 70
     0
  9
$PEXTMIN
 10
0.000000
 20
0.000000
 30
0.000000
  9
$PEXTMAX
 10
1800.0000
 20
1800.0000
 30
1800.0000
  9
$PLIMMIN
 10
0.0000
 20
0.0000
  9
$PLIMMAX
 10
1188.0000
 20
840.0000
  9
$UNITMODE
 70
     0
  9
$VISRETAIN
 70
     0
  9
$PLINEGEN
 70
     0
  9
$PSLTSCALE
 70
     1
  9
$TREEDEPTH
 70
  3020
  9
$PICKSTYLE
 70
     1
  9
$CMLSTYLE
  2
STANDARD
  9
$CMLJUST
 70
     0
  9
$CMLSCALE
 40
1.0
  9
$SAVEIMAGES
 70
     0
  0
ENDSEC
  0
SECTION
  2
CLASSES
  0
ENDSEC
  0
SECTION
  2
TABLES
  0
TABLE
  2
VPORT
  5
8
100
AcDbSymbolTable
 70
     2
  0
VPORT
  5
1F
100
AcDbSymbolTableRecord
100
AcDbViewportTableRecord
  2
*ACTIVE
 70
     0
 10
0.0
 20
0.0
 11
1.0
 21
1.0
 12
203.3102
 22
105.0
 13
0.0
 23
0.0
 14
10.0
 24
10.0
 15
10.0
 25
10.0
 16
0.0
 26
0.0
 36
1.0
 17
0.0
 27
0.0
 37
0.0
 40
210.0
 41
1.9363
 42
50.0
 43
0.0
 44
0.0
 50
0.0
 51
0.0
 71
     0
 72
   100
 73
     1
 74
     0
 75
     0
 76
     0
 77
     0
 78
     0
  0
ENDTAB
  0
TABLE
  2
LTYPE
  5
12D
100
AcDbSymbolTable
 70
     4
  0
LTYPE
  5
14
100
AcDbSymbolTableRecord
100
AcDbLinetypeTableRecord
  2
BYBLOCK
 70
     0
  3

 72
    65
 73
     0
 40
0.0
  0
LTYPE
  5
15
100
AcDbSymbolTableRecord
100
AcDbLinetypeTableRecord
  2
BYLAYER
 70
     0
  3

 72
    65
 73
     0
 40
0.0
  0
LTYPE
  5
92
100
AcDbSymbolTableRecord
100
AcDbLinetypeTableRecord
  2
CONTINUOUS
 70
     0
  3
Solid line
 72
    65
 73
     0
 40
0.0
  0
LTYPE
  5
97
100
AcDbSymbolTableRecord
100
AcDbLinetypeTableRecord
  2
CENTER2
 70
    64
  3
___ _ ___ _ ___ _ ___ _ ___ _ ___ _ ___ _ ___ _
 72
    65
 73
     4
 40
1.125
 49
0.75
 74
     0
 49
-0.125
 74
     0
 49
0.125
 74
     0
 49
-0.125
 74
     0
  0
LTYPE
  5
A5
100
AcDbSymbolTableRecord
100
AcDbLinetypeTableRecord
  2
HIDDEN
 70
    64
  3
__ __ __ __ __ __ __ __ __ __ __ __ __ __ __ __
 72
    65
 73
     2
 40
0.375
 49
0.25
 74
     0
 49
-0.125
 74
     0
  0
LTYPE
  5
A9
100
AcDbSymbolTableRecord
100
AcDbLinetypeTableRecord
  2
PHANTOM2
 70
    64
  3
___ _ _ ___ _ _ ___ _ _ ___ _ _ ___ _ _ ___ _ _
 72
    65
 73
     6
 40
1.25
 49
0.625
 74
     0
 49
-0.125
 74
     0
 49
0.125
 74
     0
 49
-0.125
 74
     0
 49
0.125
 74
     0
 49
-0.125
 74
     0
  0
ENDTAB
  0
TABLE
  2
LAYER
  5
12E
100
AcDbSymbolTable
 70
     1
  0
LAYER
  5
12F
100
AcDbSymbolTableRecord
100
AcDbLayerTableRecord
  2
0
 70
    64
 62
     7
  6
CONTINUOUS
  0
ENDTAB
  0
TABLE
  2
STYLE
  5
3
100
AcDbSymbolTable
 70
     1
  0
STYLE
  5
10
100
AcDbSymbolTableRecord
100
AcDbTextStyleTableRecord
  2
STANDARD
 70
     0
 40
0.0
 41
0.8
 50
0.0
 71
     0
 42
3.5000
  3
simplex
  4
extfont
  0
ENDTAB
  0
TABLE
  2
VIEW
  5
6
100
AcDbSymbolTable
 70
     0
  0
ENDTAB
  0
TABLE
  2
UCS
  5
7
100
AcDbSymbolTable
 70
     0
  0
ENDTAB
  0
TABLE
  2
APPID
  5
9
100
AcDbSymbolTable
 70
     1
  0
APPID
  5
11
100
AcDbSymbolTableRecord
100
AcDbRegAppTableRecord
  2
ACAD
 70
     0
  0
ENDTAB
  0
TABLE
  2
DIMSTYLE
  5
A
100
AcDbSymbolTable
 70
     1
  0
DIMSTYLE
105
1D
100
AcDbSymbolTableRecord
100
AcDbDimStyleTableRecord
  2
DIM1
 70
     0
  3

  4

  5
_OPEN
  6
_OPEN
  7
_OPEN
 40
1.0000
 41
3.0000
 42
1.0000
 43
30.0
 44
1.0000
 45
0.0
 46
0.0
 47
0.0
 48
0.0
140
3.0000
141
0.0
142
0.0
143
25.4
144
1.0
145
0.0
146
1.0000
147
1.5000
 71
     0
 72
     0
 73
     0
 74
     0
 75
     0
 76
     0
 77
     1
 78
     8
170
     0
171
     2
172
     1
173
     1
174
     0
175
     0
176
     3
177
     3
178
     0
270
     2
271
     4
272
     4
273
     2
274
     2
340
10
275
     0
280
     0
281
     0
282
     0
283
     1
284
     8
285
     0
286
     0
287
    3
288
     1
  0
ENDTAB
  0
TABLE
  2
BLOCK_RECORD
  5
1
100
AcDbSymbolTable
 70
    18
  0
BLOCK_RECORD
  5
19
100
AcDbSymbolTableRecord
100
AcDbBlockTableRecord
  2
*MODEL_SPACE
  0
BLOCK_RECORD
  5
16
100
AcDbSymbolTableRecord
100
AcDbBlockTableRecord
  2
*PAPER_SPACE
  0
BLOCK_RECORD
  5
C0
100
AcDbSymbolTableRecord
100
AcDbBlockTableRecord
  2
_OPEN
  0
BLOCK_RECORD
  5
C1
100
AcDbSymbolTableRecord
100
AcDbBlockTableRecord
  2
_ORIGIN
  0
BLOCK_RECORD
  5
C2
100
AcDbSymbolTableRecord
100
AcDbBlockTableRecord
  2
_OBLIQUE
  0
BLOCK_RECORD
  5
C3
100
AcDbSymbolTableRecord
100
AcDbBlockTableRecord
  2
_NONE
  0
BLOCK_RECORD
  5
C4
100
AcDbSymbolTableRecord
100
AcDbBlockTableRecord
  2
_DOT
  0
BLOCK_RECORD
  5
130
100
AcDbSymbolTableRecord
100
AcDbBlockTableRecord
  2
*D0
  0
BLOCK_RECORD
  5
131
100
AcDbSymbolTableRecord
100
AcDbBlockTableRecord
  2
*D1
  0
BLOCK_RECORD
  5
132
100
AcDbSymbolTableRecord
100
AcDbBlockTableRecord
  2
*D2
  0
BLOCK_RECORD
  5
133
100
AcDbSymbolTableRecord
100
AcDbBlockTableRecord
  2
*D3
  0
BLOCK_RECORD
  5
134
100
AcDbSymbolTableRecord
100
AcDbBlockTableRecord
  2
*D4
  0
BLOCK_RECORD
  5
135
100
AcDbSymbolTableRecord
100
AcDbBlockTableRecord
  2
*D5
  0
BLOCK_RECORD
  5
136
100
AcDbSymbolTableRecord
100
AcDbBlockTableRecord
  2
*D6
  0
BLOCK_RECORD
  5
137
100
AcDbSymbolTableRecord
100
AcDbBlockTableRecord
  2
*D7
  0
BLOCK_RECORD
  5
138
100
AcDbSymbolTableRecord
100
AcDbBlockTableRecord
  2
*D8
  0
BLOCK_RECORD
  5
139
100
AcDbSymbolTableRecord
100
AcDbBlockTableRecord
  2
*D9
  0
BLOCK_RECORD
  5
13A
100
AcDbSymbolTableRecord
100
AcDbBlockTableRecord
  2
*D10
  0
BLOCK_RECORD
  5
13B
100
AcDbSymbolTableRecord
100
AcDbBlockTableRecord
  2
*D11
  0
BLOCK_RECORD
  5
13C
100
AcDbSymbolTableRecord
100
AcDbBlockTableRecord
  2
*D12
  0
ENDTAB
  0
ENDSEC
  0
SECTION
  2
BLOCKS
  0
BLOCK
  5
1A
100
AcDbEntity
  8
0
100
AcDbBlockBegin
  2
*MODEL_SPACE
 70
     0
 10
0.0
 20
0.0
 30
0.0
  3
*MODEL_SPACE
  1

  0
ENDBLK
  5
1B
100
AcDbEntity
  8
0
100
AcDbBlockEnd
  0
BLOCK
  5
17
100
AcDbEntity
 67
     1
  8
0
100
AcDbBlockBegin
  2
*PAPER_SPACE
 70
     0
 10
0.0
 20
0.0
 30
0.0
  3
*PAPER_SPACE
  1

  0
ENDBLK
  5
18
100
AcDbEntity
 67
     1
  8
0
100
AcDbBlockEnd
  0
BLOCK
  5
2B
100
AcDbEntity
  8
0
100
AcDbBlockBegin
  2
_OPEN
 70
    64
 10
0.0
 20
0.0
 30
0.0
  3
_OPEN
  1

  0
LINE
  5
2C
100
AcDbEntity
  8
0
  6
BYBLOCK
 62
     0
100
AcDbLine
 10
-1.0
 20
0.1667
 30
0.0
 11
0.0
 21
0.0
 31
0.0
  0
LINE
  5
2D
100
AcDbEntity
  8
0
  6
BYBLOCK
 62
     0
100
AcDbLine
 10
0.0
 20
0.0
 30
0.0
 11
-1.0
 21
-0.1667
 31
0.0
  0
LINE
  5
2E
100
AcDbEntity
  8
0
  6
BYBLOCK
 62
     0
100
AcDbLine
 10
0.0
 20
0.0
 30
0.0
 11
-1.0
 21
0.0
 31
0.0
  0
ENDBLK
  5
2F
100
AcDbEntity
  8
0
100
AcDbBlockEnd
  0
BLOCK
  5
C5
100
AcDbEntity
  8
0
100
AcDbBlockBegin
  2
_ORIGIN
 70
     0
 10
0.0
 20
0.0
 30
0.0
  3
_ORIGIN
  1

  0
CIRCLE
  5
C6
100
AcDbEntity
  8
0
  6
BYBLOCK
 62
     0
100
AcDbCircle
 10
0.0
 20
0.0
 30
0.0
 40
0.5
  0
LINE
  5
C7
100
AcDbEntity
  8
0
  6
BYBLOCK
 62
     0
100
AcDbLine
 10
0.0
 20
0.0
 30
0.0
 11
-1.0
 21
0.0
 31
0.0
  0
ENDBLK
  5
C8
100
AcDbEntity
  8
0
100
AcDbBlockEnd
  0
BLOCK
  5
C9
100
AcDbEntity
  8
0
100
AcDbBlockBegin
  2
_DOT
 70
     0
 10
0.0
 20
0.0
 30
0.0
  3
_DOT
  1

  0
POLYLINE
  5
CA
100
AcDbEntity
  8
0
  6
BYBLOCK
 62
     0
100
AcDb2dPolyline
 66
     1
 10
0.0
 20
0.0
 30
0.0
 70
     1
 40
0.5
 41
0.5
  0
VERTEX
  5
CB
100
AcDbEntity
  8
0
  6
BYBLOCK
 62
     0
100
AcDbVertex
100
AcDb2dVertex
 10
-0.25
 20
0.0
 30
0.0
 42
1.0
  0
VERTEX
  5
CC
100
AcDbEntity
  8
0
  6
BYBLOCK
 62
     0
100
AcDbVertex
100
AcDb2dVertex
 10
0.25
 20
0.0
 30
0.0
 42
1.0
  0
SEQEND
  5
CD
100
AcDbEntity
  8
0
  6
BYBLOCK
 62
     0
  0
LINE
  5
CE
100
AcDbEntity
  8
0
  6
BYBLOCK
 62
     0
100
AcDbLine
 10
-0.5
 20
0.0
 30
0.0
 11
-1.0
 21
0.0
 31
0.0
  0
ENDBLK
  5
CF
100
AcDbEntity
  8
0
100
AcDbBlockEnd
  0
BLOCK
  5
D0
100
AcDbEntity
  8
0
100
AcDbBlockBegin
  2
_OBLIQUE
 70
     0
 10
0.0
 20
0.0
 30
0.0
  3
_OBLIQUE
  1

  0
LINE
  5
E0
100
AcDbEntity
  8
0
  6
BYBLOCK
 62
     0
100
AcDbLine
 10
-0.5
 20
-0.5
 30
0.0
 11
0.5
 21
0.5
 31
0.0
  0
ENDBLK
  5
E1
100
AcDbEntity
  8
0
100
AcDbBlockEnd
  0
BLOCK
  5
E2
100
AcDbEntity
  8
0
100
AcDbBlockBegin
  2
_NONE
 70
     0
 10
0.0
 20
0.0
 30
0.0
  3
_NONE
  1

  0
CIRCLE
  5
E3
100
AcDbEntity
  8
0
  6
BYBLOCK
 62
     0
100
AcDbCircle
 10
0.0
 20
0.0
 30
0.0
 40
0.25
  0
ENDBLK
  5
E4
100
AcDbEntity
  8
0
100
AcDbBlockEnd
  0
BLOCK
  5
13D
100
AcDbEntity
  8
0
100
AcDbBlockBegin
  2
*D0
 70
    65
 10
0.0
 20
0.0
  0
MTEXT
  5
13E
100
AcDbEntity
  8
0
100
AcDbMText
 62
     0
  6
CONTINUOUS
 10
531.030000000000
 20
436.031990264473
 40
3.000000000000
 41
0.000000000000
 71
     5
 72
     1
  1
\A1;(37.5)
  0
LINE
  5
13F
100
AcDbEntity
  8
0
100
AcDbLine
 62
     3
  6
CONTINUOUS
 10
515.250000000000
 20
433.031990264473
 11
552.750000000000
 21
433.031990264473
  0
INSERT
  5
140
100
AcDbEntity
  8
0
100
AcDbBlockReference
 62
     3
  6
CONTINUOUS
  2
_OPEN
 10
515.250000
 20
433.031990
 41
3.000000
 42
3.000000
 50
180.000000
  0
INSERT
  5
141
100
AcDbEntity
  8
0
100
AcDbBlockReference
 62
     3
  6
CONTINUOUS
  2
_OPEN
 10
552.750000
 20
433.031990
 41
3.000000
 42
3.000000
 50
0.000000
  0
LINE
  5
142
100
AcDbEntity
  8
0
100
AcDbLine
 62
     3
  6
CONTINUOUS
 10
515.250000000000
 20
442.961299985647
 11
515.250000000000
 21
432.031990264473
  0
LINE
  5
143
100
AcDbEntity
  8
0
100
AcDbLine
 62
     3
  6
CONTINUOUS
 10
552.750000000000
 20
442.961299985647
 11
552.750000000000
 21
432.031990264473
  0
ENDBLK
  5
144
100
AcDbEntity
  8
0
100
AcDbBlockEnd
  0
BLOCK
  5
145
100
AcDbEntity
  8
0
100
AcDbBlockBegin
  2
*D1
 70
    65
 10
0.0
 20
0.0
  0
MTEXT
  5
146
100
AcDbEntity
  8
0
100
AcDbMText
 62
     0
  6
CONTINUOUS
 10
499.362787202001
 20
466.530001000000
 40
3.000000000000
 41
0.000000000000
 71
     5
 72
     1
 11
0.000000000000
 21
1.000000000000
  1
\A1;200%%p30
  0
LINE
  5
147
100
AcDbEntity
  8
0
100
AcDbLine
 62
     3
  6
CONTINUOUS
 10
502.362787202001
 20
485.500001000000
 11
502.362787202001
 21
453.500001000000
  0
INSERT
  5
148
100
AcDbEntity
  8
0
100
AcDbBlockReference
 62
     3
  6
CONTINUOUS
  2
_OPEN
 10
502.362787
 20
485.500001
 41
3.000000
 42
3.000000
 50
90.000000
  0
INSERT
  5
149
100
AcDbEntity
  8
0
100
AcDbBlockReference
 62
     3
  6
CONTINUOUS
  2
_OPEN
 10
502.362787
 20
453.500001
 41
3.000000
 42
3.000000
 50
270.000000
  0
LINE
  5
14A
100
AcDbEntity
  8
0
100
AcDbLine
 62
     3
  6
CONTINUOUS
 10
497.000000000000
 20
485.500001000000
 11
503.362787202001
 21
485.500001000000
  0
LINE
  5
14B
100
AcDbEntity
  8
0
100
AcDbLine
 62
     3
  6
CONTINUOUS
 10
513.765000000000
 20
453.500001000000
 11
501.362787202001
 21
453.500001000000
  0
ENDBLK
  5
14C
100
AcDbEntity
  8
0
100
AcDbBlockEnd
  0
BLOCK
  5
14D
100
AcDbEntity
  8
0
100
AcDbBlockBegin
  2
*D2
 70
    65
 10
0.0
 20
0.0
  0
MTEXT
  5
14E
100
AcDbEntity
  8
0
100
AcDbMText
 62
     0
  6
CONTINUOUS
 10
469.161940082908
 20
378.265001000000
 40
3.000000000000
 41
0.000000000000
 71
     5
 72
     1
 11
0.000000000000
 21
1.000000000000
  1
\A1;8.5
  0
LINE
  5
14F
100
AcDbEntity
  8
0
100
AcDbLine
 62
     3
  6
CONTINUOUS
 10
472.161940082908
 20
371.000001000000
 11
472.161940082908
 21
388.500001000000
  0
INSERT
  5
150
100
AcDbEntity
  8
0
100
AcDbBlockReference
 62
     3
  6
CONTINUOUS
  2
_OPEN
 10
472.161940
 20
384.000001
 41
3.000000
 42
3.000000
 50
270.000000
  0
INSERT
  5
151
100
AcDbEntity
  8
0
100
AcDbBlockReference
 62
     3
  6
CONTINUOUS
  2
_OPEN
 10
472.161940
 20
375.500001
 41
3.000000
 42
3.000000
 50
90.000000
  0
LINE
  5
152
100
AcDbEntity
  8
0
100
AcDbLine
 62
     3
  6
CONTINUOUS
 10
493.000000000000
 20
384.000001000000
 11
471.161940082908
 21
384.000001000000
  0
LINE
  5
153
100
AcDbEntity
  8
0
100
AcDbLine
 62
     3
  6
CONTINUOUS
 10
483.000000000000
 20
375.500001000000
 11
471.161940082908
 21
375.500001000000
  0
ENDBLK
  5
154
100
AcDbEntity
  8
0
100
AcDbBlockEnd
  0
BLOCK
  5
155
100
AcDbEntity
  8
0
100
AcDbBlockBegin
  2
*D3
 70
    65
 10
0.0
 20
0.0
  0
MTEXT
  5
156
100
AcDbEntity
  8
0
100
AcDbMText
 62
     0
  6
CONTINUOUS
 10
458.198588669300
 20
342.780001000000
 40
3.000000000000
 41
0.000000000000
 71
     5
 72
     1
 11
0.000000000000
 21
1.000000000000
  1
\A1;(80.9)
  0
LINE
  5
157
100
AcDbEntity
  8
0
100
AcDbLine
 62
     3
  6
CONTINUOUS
 10
461.198588669300
 20
386.200001000000
 11
461.198588669300
 21
305.300001000000
  0
INSERT
  5
158
100
AcDbEntity
  8
0
100
AcDbBlockReference
 62
     3
  6
CONTINUOUS
  2
_OPEN
 10
461.198589
 20
386.200001
 41
3.000000
 42
3.000000
 50
90.000000
  0
INSERT
  5
159
100
AcDbEntity
  8
0
100
AcDbBlockReference
 62
     3
  6
CONTINUOUS
  2
_OPEN
 10
461.198589
 20
305.300001
 41
3.000000
 42
3.000000
 50
270.000000
  0
LINE
  5
15A
100
AcDbEntity
  8
0
100
AcDbLine
 62
     3
  6
CONTINUOUS
 10
505.500000000000
 20
386.200001000000
 11
460.198588669300
 21
386.200001000000
  0
LINE
  5
15B
100
AcDbEntity
  8
0
100
AcDbLine
 62
     3
  6
CONTINUOUS
 10
503.431370849898
 20
305.300001000000
 11
460.198588669300
 21
305.300001000000
  0
ENDBLK
  5
15C
100
AcDbEntity
  8
0
100
AcDbBlockEnd
  0
BLOCK
  5
15D
100
AcDbEntity
  8
0
100
AcDbBlockBegin
  2
*D4
 70
    65
 10
0.0
 20
0.0
  0
MTEXT
  5
15E
100
AcDbEntity
  8
0
100
AcDbMText
 62
     0
  6
CONTINUOUS
 10
469.161940082908
 20
354.510001000000
 40
3.000000000000
 41
0.000000000000
 71
     5
 72
     1
 11
0.000000000000
 21
1.000000000000
  1
\A1;40
  0
LINE
  5
15F
100
AcDbEntity
  8
0
100
AcDbLine
 62
     3
  6
CONTINUOUS
 10
472.161940082908
 20
375.500001000000
 11
472.161940082908
 21
335.500001000000
  0
INSERT
  5
160
100
AcDbEntity
  8
0
100
AcDbBlockReference
 62
     3
  6
CONTINUOUS
  2
_OPEN
 10
472.161940
 20
375.500001
 41
3.000000
 42
3.000000
 50
90.000000
  0
INSERT
  5
161
100
AcDbEntity
  8
0
100
AcDbBlockReference
 62
     3
  6
CONTINUOUS
  2
_OPEN
 10
472.161940
 20
335.500001
 41
3.000000
 42
3.000000
 50
270.000000
  0
LINE
  5
162
100
AcDbEntity
  8
0
100
AcDbLine
 62
     3
  6
CONTINUOUS
 10
483.000000000000
 20
375.500001000000
 11
471.161940082908
 21
375.500001000000
  0
LINE
  5
163
100
AcDbEntity
  8
0
100
AcDbLine
 62
     3
  6
CONTINUOUS
 10
484.240000000000
 20
335.500001000000
 11
471.161940082908
 21
335.500001000000
  0
ENDBLK
  5
164
100
AcDbEntity
  8
0
100
AcDbBlockEnd
  0
BLOCK
  5
165
100
AcDbEntity
  8
0
100
AcDbBlockBegin
  2
*D5
 70
    65
 10
0.0
 20
0.0
  0
MTEXT
  5
166
100
AcDbEntity
  8
0
100
AcDbMText
 62
     0
  6
CONTINUOUS
 10
437.926715970039
 20
524.015001000000
 40
3.000000000000
 41
0.000000000000
 71
     5
 72
     1
 11
0.000000000000
 21
1.000000000000
  1
\A1;100
  0
LINE
  5
167
100
AcDbEntity
  8
0
100
AcDbLine
 62
     3
  6
CONTINUOUS
 10
440.926715970039
 20
575.500001000000
 11
440.926715970039
 21
475.500001000000
  0
INSERT
  5
168
100
AcDbEntity
  8
0
100
AcDbBlockReference
 62
     3
  6
CONTINUOUS
  2
_OPEN
 10
440.926716
 20
575.500001
 41
3.000000
 42
3.000000
 50
90.000000
  0
INSERT
  5
169
100
AcDbEntity
  8
0
100
AcDbBlockReference
 62
     3
  6
CONTINUOUS
  2
_OPEN
 10
440.926716
 20
475.500001
 41
3.000000
 42
3.000000
 50
270.000000
  0
LINE
  5
16A
100
AcDbEntity
  8
0
100
AcDbLine
 62
     3
  6
CONTINUOUS
 10
485.000000000000
 20
575.500001000000
 11
439.926715970039
 21
575.500001000000
  0
LINE
  5
16B
100
AcDbEntity
  8
0
100
AcDbLine
 62
     3
  6
CONTINUOUS
 10
485.000000000000
 20
475.500001000000
 11
439.926715970039
 21
475.500001000000
  0
ENDBLK
  5
16C
100
AcDbEntity
  8
0
100
AcDbBlockEnd
  0
BLOCK
  5
16D
100
AcDbEntity
  8
0
100
AcDbBlockBegin
  2
*D6
 70
    65
 10
0.0
 20
0.0
  0
MTEXT
  5
16E
100
AcDbEntity
  8
0
100
AcDbMText
 62
     0
  6
CONTINUOUS
 10
449.924351722002
 20
524.510001000000
 40
3.000000000000
 41
0.000000000000
 71
     5
 72
     1
 11
0.000000000000
 21
1.000000000000
  1
\A1;80
  0
LINE
  5
16F
100
AcDbEntity
  8
0
100
AcDbLine
 62
     3
  6
CONTINUOUS
 10
452.924351722002
 20
565.500001000000
 11
452.924351722002
 21
485.500001000000
  0
INSERT
  5
170
100
AcDbEntity
  8
0
100
AcDbBlockReference
 62
     3
  6
CONTINUOUS
  2
_OPEN
 10
452.924352
 20
565.500001
 41
3.000000
 42
3.000000
 50
90.000000
  0
INSERT
  5
171
100
AcDbEntity
  8
0
100
AcDbBlockReference
 62
     3
  6
CONTINUOUS
  2
_OPEN
 10
452.924352
 20
485.500001
 41
3.000000
 42
3.000000
 50
270.000000
  0
LINE
  5
172
100
AcDbEntity
  8
0
100
AcDbLine
 62
     3
  6
CONTINUOUS
 10
495.000000000000
 20
565.500001000000
 11
451.924351722002
 21
565.500001000000
  0
LINE
  5
173
100
AcDbEntity
  8
0
100
AcDbLine
 62
     3
  6
CONTINUOUS
 10
495.000000000000
 20
485.500001000000
 11
451.924351722002
 21
485.500001000000
  0
ENDBLK
  5
174
100
AcDbEntity
  8
0
100
AcDbBlockEnd
  0
BLOCK
  5
175
100
AcDbEntity
  8
0
100
AcDbBlockBegin
  2
*D7
 70
    65
 10
0.0
 20
0.0
  0
MTEXT
  5
176
100
AcDbEntity
  8
0
100
AcDbMText
 62
     0
  6
CONTINUOUS
 10
459.646573796868
 20
524.510001000000
 40
3.000000000000
 41
0.000000000000
 71
     5
 72
     1
 11
0.000000000000
 21
1.000000000000
  1
\A1;55
  0
LINE
  5
177
100
AcDbEntity
  8
0
100
AcDbLine
 62
     3
  6
CONTINUOUS
 10
462.646573796868
 20
553.000001000000
 11
462.646573796868
 21
498.000001000000
  0
INSERT
  5
178
100
AcDbEntity
  8
0
100
AcDbBlockReference
 62
     3
  6
CONTINUOUS
  2
_OPEN
 10
462.646574
 20
553.000001
 41
3.000000
 42
3.000000
 50
90.000000
  0
INSERT
  5
179
100
AcDbEntity
  8
0
100
AcDbBlockReference
 62
     3
  6
CONTINUOUS
  2
_OPEN
 10
462.646574
 20
498.000001
 41
3.000000
 42
3.000000
 50
270.000000
  0
LINE
  5
17A
100
AcDbEntity
  8
0
100
AcDbLine
 62
     3
  6
CONTINUOUS
 10
507.500000000000
 20
553.000001000000
 11
461.646573796868
 21
553.000001000000
  0
LINE
  5
17B
100
AcDbEntity
  8
0
100
AcDbLine
 62
     3
  6
CONTINUOUS
 10
507.500000000000
 20
498.000001000000
 11
461.646573796868
 21
498.000001000000
  0
ENDBLK
  5
17C
100
AcDbEntity
  8
0
100
AcDbBlockEnd
  0
BLOCK
  5
17D
100
AcDbEntity
  8
0
100
AcDbBlockBegin
  2
*D8
 70
    65
 10
0.0
 20
0.0
  0
MTEXT
  5
17E
100
AcDbEntity
  8
0
100
AcDbMText
 62
     0
  6
CONTINUOUS
 10
470.816786393523
 20
524.510001000000
 40
3.000000000000
 41
0.000000000000
 71
     5
 72
     1
 11
0.000000000000
 21
1.000000000000
  1
\A1;40
  0
LINE
  5
17F
100
AcDbEntity
  8
0
100
AcDbLine
 62
     3
  6
CONTINUOUS
 10
473.816786393523
 20
545.500001000000
 11
473.816786393523
 21
505.500001000000
  0
INSERT
  5
180
100
AcDbEntity
  8
0
100
AcDbBlockReference
 62
     3
  6
CONTINUOUS
  2
_OPEN
 10
473.816786
 20
545.500001
 41
3.000000
 42
3.000000
 50
90.000000
  0
INSERT
  5
181
100
AcDbEntity
  8
0
100
AcDbBlockReference
 62
     3
  6
CONTINUOUS
  2
_OPEN
 10
473.816786
 20
505.500001
 41
3.000000
 42
3.000000
 50
270.000000
  0
LINE
  5
182
100
AcDbEntity
  8
0
100
AcDbLine
 62
     3
  6
CONTINUOUS
 10
509.000000000000
 20
545.500001000000
 11
472.816786393523
 21
545.500001000000
  0
LINE
  5
183
100
AcDbEntity
  8
0
100
AcDbLine
 62
     3
  6
CONTINUOUS
 10
509.000000000000
 20
505.500001000000
 11
472.816786393523
 21
505.500001000000
  0
ENDBLK
  5
184
100
AcDbEntity
  8
0
100
AcDbBlockEnd
  0
BLOCK
  5
185
100
AcDbEntity
  8
0
100
AcDbBlockBegin
  2
*D9
 70
    65
 10
0.0
 20
0.0
  0
MTEXT
  5
186
100
AcDbEntity
  8
0
100
AcDbMText
 62
     0
  6
CONTINUOUS
 10
532.515000000000
 20
625.718672633171
 40
3.000000000000
 41
0.000000000000
 71
     5
 72
     1
  1
\A1;100
  0
LINE
  5
187
100
AcDbEntity
  8
0
100
AcDbLine
 62
     3
  6
CONTINUOUS
 10
484.000000000000
 20
622.718672633171
 11
584.000000000000
 21
622.718672633171
  0
INSERT
  5
188
100
AcDbEntity
  8
0
100
AcDbBlockReference
 62
     3
  6
CONTINUOUS
  2
_OPEN
 10
484.000000
 20
622.718673
 41
3.000000
 42
3.000000
 50
180.000000
  0
INSERT
  5
189
100
AcDbEntity
  8
0
100
AcDbBlockReference
 62
     3
  6
CONTINUOUS
  2
_OPEN
 10
584.000000
 20
622.718673
 41
3.000000
 42
3.000000
 50
0.000000
  0
LINE
  5
18A
100
AcDbEntity
  8
0
100
AcDbLine
 62
     3
  6
CONTINUOUS
 10
484.000000000000
 20
574.500001000000
 11
484.000000000000
 21
623.718672633171
  0
LINE
  5
18B
100
AcDbEntity
  8
0
100
AcDbLine
 62
     3
  6
CONTINUOUS
 10
584.000000000000
 20
574.500001000000
 11
584.000000000000
 21
623.718672633171
  0
ENDBLK
  5
18C
100
AcDbEntity
  8
0
100
AcDbBlockEnd
  0
BLOCK
  5
18D
100
AcDbEntity
  8
0
100
AcDbBlockBegin
  2
*D10
 70
    65
 10
0.0
 20
0.0
  0
MTEXT
  5
18E
100
AcDbEntity
  8
0
100
AcDbMText
 62
     0
  6
CONTINUOUS
 10
533.010000000000
 20
615.169027402997
 40
3.000000000000
 41
0.000000000000
 71
     5
 72
     1
  1
\A1;80
  0
LINE
  5
18F
100
AcDbEntity
  8
0
100
AcDbLine
 62
     3
  6
CONTINUOUS
 10
494.000000000000
 20
612.169027402997
 11
574.000000000000
 21
612.169027402997
  0
INSERT
  5
190
100
AcDbEntity
  8
0
100
AcDbBlockReference
 62
     3
  6
CONTINUOUS
  2
_OPEN
 10
494.000000
 20
612.169027
 41
3.000000
 42
3.000000
 50
180.000000
  0
INSERT
  5
191
100
AcDbEntity
  8
0
100
AcDbBlockReference
 62
     3
  6
CONTINUOUS
  2
_OPEN
 10
574.000000
 20
612.169027
 41
3.000000
 42
3.000000
 50
0.000000
  0
LINE
  5
192
100
AcDbEntity
  8
0
100
AcDbLine
 62
     3
  6
CONTINUOUS
 10
494.000000000000
 20
564.500001000000
 11
494.000000000000
 21
613.169027402997
  0
LINE
  5
193
100
AcDbEntity
  8
0
100
AcDbLine
 62
     3
  6
CONTINUOUS
 10
574.000000000000
 20
564.500001000000
 11
574.000000000000
 21
613.169027402997
  0
ENDBLK
  5
194
100
AcDbEntity
  8
0
100
AcDbBlockEnd
  0
BLOCK
  5
195
100
AcDbEntity
  8
0
100
AcDbBlockBegin
  2
*D11
 70
    65
 10
0.0
 20
0.0
  0
MTEXT
  5
196
100
AcDbEntity
  8
0
100
AcDbMText
 62
     0
  6
CONTINUOUS
 10
533.010000000000
 20
605.446805328131
 40
3.000000000000
 41
0.000000000000
 71
     5
 72
     1
  1
\A1;55
  0
LINE
  5
197
100
AcDbEntity
  8
0
100
AcDbLine
 62
     3
  6
CONTINUOUS
 10
506.500000000000
 20
602.446805328131
 11
561.500000000000
 21
602.446805328131
  0
INSERT
  5
198
100
AcDbEntity
  8
0
100
AcDbBlockReference
 62
     3
  6
CONTINUOUS
  2
_OPEN
 10
506.500000
 20
602.446805
 41
3.000000
 42
3.000000
 50
180.000000
  0
INSERT
  5
199
100
AcDbEntity
  8
0
100
AcDbBlockReference
 62
     3
  6
CONTINUOUS
  2
_OPEN
 10
561.500000
 20
602.446805
 41
3.000000
 42
3.000000
 50
0.000000
  0
LINE
  5
19A
100
AcDbEntity
  8
0
100
AcDbLine
 62
     3
  6
CONTINUOUS
 10
506.500000000000
 20
552.000001000000
 11
506.500000000000
 21
603.446805328131
  0
LINE
  5
19B
100
AcDbEntity
  8
0
100
AcDbLine
 62
     3
  6
CONTINUOUS
 10
561.500000000000
 20
552.000001000000
 11
561.500000000000
 21
603.446805328131
  0
ENDBLK
  5
19C
100
AcDbEntity
  8
0
100
AcDbBlockEnd
  0
BLOCK
  5
19D
100
AcDbEntity
  8
0
100
AcDbBlockBegin
  2
*D12
 70
    65
 10
0.0
 20
0.0
  0
MTEXT
  5
19E
100
AcDbEntity
  8
0
100
AcDbMText
 62
     0
  6
CONTINUOUS
 10
533.010000000000
 20
594.483448520303
 40
3.000000000000
 41
0.000000000000
 71
     5
 72
     1
  1
\A1;40
  0
LINE
  5
19F
100
AcDbEntity
  8
0
100
AcDbLine
 62
     3
  6
CONTINUOUS
 10
514.000000000000
 20
591.483448520303
 11
554.000000000000
 21
591.483448520303
  0
INSERT
  5
1A0
100
AcDbEntity
  8
0
100
AcDbBlockReference
 62
     3
  6
CONTINUOUS
  2
_OPEN
 10
514.000000
 20
591.483449
 41
3.000000
 42
3.000000
 50
180.000000
  0
INSERT
  5
1A1
100
AcDbEntity
  8
0
100
AcDbBlockReference
 62
     3
  6
CONTINUOUS
  2
_OPEN
 10
554.000000
 20
591.483449
 41
3.000000
 42
3.000000
 50
0.000000
  0
LINE
  5
1A2
100
AcDbEntity
  8
0
100
AcDbLine
 62
     3
  6
CONTINUOUS
 10
514.000000000000
 20
550.500001000000
 11
514.000000000000
 21
592.483448520303
  0
LINE
  5
1A3
100
AcDbEntity
  8
0
100
AcDbLine
 62
     3
  6
CONTINUOUS
 10
554.000000000000
 20
550.500001000000
 11
554.000000000000
 21
592.483448520303
  0
ENDBLK
  5
1A4
100
AcDbEntity
  8
0
100
AcDbBlockEnd
  0
ENDSEC
  0
SECTION
  2
ENTITIES
  0
CIRCLE
  5
1A5
100
AcDbEntity
  8
0
100
AcDbCircle
 62
     3
  6
CONTINUOUS
 10
515.250000000000
 20
377.375001000000
 40
0.485000000000
  0
CIRCLE
  5
1A6
100
AcDbEntity
  8
0
100
AcDbCircle
 62
     3
  6
CONTINUOUS
 10
515.250000000000
 20
377.375001000000
 40
0.885000000000
  0
LINE
  5
1A7
100
AcDbEntity
  8
0
100
AcDbLine
 62
     0
  6
CENTER2
 48
10.0
 10
520.329359099269
 20
377.500001000000
 11
510.401998206973
 21
377.500001000000
  0
LINE
  5
1A8
100
AcDbEntity
  8
0
100
AcDbLine
 62
     0
  6
CENTER2
 48
10.0
 10
517.557883638950
 20
377.375001000000
 11
513.166959391907
 21
377.375001000000
  0
LINE
  5
1A9
100
AcDbEntity
  8
0
100
AcDbLine
 62
     0
  6
CENTER2
 48
10.0
 10
515.250000000000
 20
382.140785045922
 11
515.250000000000
 21
372.872649008168
  0
CIRCLE
  5
1AA
100
AcDbEntity
  8
0
100
AcDbCircle
 62
     3
  6
CONTINUOUS
 10
552.750000000000
 20
377.375001000000
 40
0.485000000000
  0
CIRCLE
  5
1AB
100
AcDbEntity
  8
0
100
AcDbCircle
 62
     3
  6
CONTINUOUS
 10
552.750000000000
 20
377.375001000000
 40
0.885000000000
  0
DIMENSION
  5
1AC
100
AcDbEntity
  8
0
100
AcDbDimension
 62
     3
  6
CONTINUOUS
  2
*D0
 10
552.750000
 20
433.031990
 11
531.030000
 21
433.031990
 70
   160
  1
(37.5)
  3
DIM1
100
AcDbAlignedDimension
 13
515.250000
 23
443.961300
 14
552.750000
 24
443.961300
100
AcDbRotatedDimension
1001
ACAD
1000
DSTYLE
1002
{
1070
   271
1070
     1
1002
}
  0
TEXT
  5
1AD
100
AcDbEntity
  8
0
100
AcDbText
 62
     0
  6
CONTINUOUS
 10
671.364120353979
 20
210.248091459274
 40
3.000000000000
 41
1.000000000000
 50
0.000000000000
  1
※DCファン、ガードは予告無く変更する場合がございます
100
AcDbText
  0
TEXT
  5
1AE
100
AcDbEntity
  8
0
100
AcDbText
 62
     0
  6
CONTINUOUS
 10
671.364120353979
 20
216.453771382570
 40
3.000000000000
 41
1.000000000000
 50
0.000000000000
  1
※図面は予告無く変更する場合がございます
100
AcDbText
  0
DIMENSION
  5
1AF
100
AcDbEntity
  8
0
100
AcDbDimension
 62
     3
  6
CONTINUOUS
  2
*D1
 10
502.362787
 20
453.500001
 11
502.362787
 21
466.530001
 70
   160
  1
200%%p30
  3
DIM1
100
AcDbAlignedDimension
 13
496.000000
 23
485.500001
 14
514.765000
 24
453.500001
 50
90.000000
100
AcDbRotatedDimension
1001
ACAD
1000
DSTYLE
1002
{
1070
   271
1070
     1
1002
}
  0
LINE
  5
1B0
100
AcDbEntity
  8
0
100
AcDbLine
 62
     0
  6
CENTER2
 48
10.0
 10
575.250004000000
 20
379.781865047050
 11
575.250004000000
 21
293.690886424614
  0
DIMENSION
  5
1B1
100
AcDbEntity
  8
0
100
AcDbDimension
 62
     3
  6
CONTINUOUS
  2
*D2
 10
472.161940
 20
375.500001
 11
472.161940
 21
378.265001
 70
   160
  1
8.5
  3
DIM1
100
AcDbAlignedDimension
 13
494.000000
 23
384.000001
 14
484.000000
 24
375.500001
 50
90.000000
100
AcDbRotatedDimension
1001
ACAD
1000
DSTYLE
1002
{
1070
   271
1070
     1
1002
}
  0
DIMENSION
  5
1B2
100
AcDbEntity
  8
0
100
AcDbDimension
 62
     3
  6
CONTINUOUS
  2
*D3
 10
461.198589
 20
305.300002
 11
461.198589
 21
342.780001
 70
   160
  1
(80.9)
  3
DIM1
100
AcDbAlignedDimension
 13
506.500000
 23
386.200001
 14
504.431371
 24
305.300001
 50
90.000000
100
AcDbRotatedDimension
1001
ACAD
1000
DSTYLE
1002
{
1070
   271
1070
     1
1002
}
  0
DIMENSION
  5
1B3
100
AcDbEntity
  8
0
100
AcDbDimension
 62
     3
  6
CONTINUOUS
  2
*D4
 10
472.161940
 20
335.500001
 11
472.161940
 21
354.510001
 70
   160
  1
40
  3
DIM1
100
AcDbAlignedDimension
 13
484.000000
 23
375.500001
 14
485.240000
 24
335.500001
 50
90.000000
100
AcDbRotatedDimension
1001
ACAD
1000
DSTYLE
1002
{
1070
   271
1070
     1
1002
}
  0
DIMENSION
  5
1B4
100
AcDbEntity
  8
0
100
AcDbDimension
 62
     3
  6
CONTINUOUS
  2
*D5
 10
440.926716
 20
475.500002
 11
440.926716
 21
524.015001
 70
   160
  1
100
  3
DIM1
100
AcDbAlignedDimension
 13
486.000000
 23
575.500001
 14
486.000000
 24
475.500001
 50
90.000000
100
AcDbRotatedDimension
1001
ACAD
1000
DSTYLE
1002
{
1070
   271
1070
     1
1002
}
  0
DIMENSION
  5
1B5
100
AcDbEntity
  8
0
100
AcDbDimension
 62
     3
  6
CONTINUOUS
  2
*D6
 10
452.924352
 20
485.500002
 11
452.924352
 21
524.510001
 70
   160
  1
80
  3
DIM1
100
AcDbAlignedDimension
 13
496.000000
 23
565.500001
 14
496.000000
 24
485.500001
 50
90.000000
100
AcDbRotatedDimension
1001
ACAD
1000
DSTYLE
1002
{
1070
   271
1070
     1
1002
}
  0
DIMENSION
  5
1B6
100
AcDbEntity
  8
0
100
AcDbDimension
 62
     3
  6
CONTINUOUS
  2
*D7
 10
462.646574
 20
498.000002
 11
462.646574
 21
524.510001
 70
   160
  1
55
  3
DIM1
100
AcDbAlignedDimension
 13
508.500000
 23
553.000001
 14
508.500000
 24
498.000001
 50
90.000000
100
AcDbRotatedDimension
1001
ACAD
1000
DSTYLE
1002
{
1070
   271
1070
     1
1002
}
  0
DIMENSION
  5
1B7
100
AcDbEntity
  8
0
100
AcDbDimension
 62
     3
  6
CONTINUOUS
  2
*D8
 10
473.816786
 20
505.500002
 11
473.816786
 21
524.510001
 70
   160
  1
40
  3
DIM1
100
AcDbAlignedDimension
 13
510.000000
 23
545.500001
 14
510.000000
 24
505.500001
 50
90.000000
100
AcDbRotatedDimension
1001
ACAD
1000
DSTYLE
1002
{
1070
   271
1070
     1
1002
}
  0
DIMENSION
  5
1B8
100
AcDbEntity
  8
0
100
AcDbDimension
 62
     3
  6
CONTINUOUS
  2
*D9
 10
584.000001
 20
622.718673
 11
532.515000
 21
622.718673
 70
   160
  1
100
  3
DIM1
100
AcDbAlignedDimension
 13
484.000000
 23
573.500001
 14
584.000000
 24
573.500001
100
AcDbRotatedDimension
1001
ACAD
1000
DSTYLE
1002
{
1070
   271
1070
     1
1002
}
  0
DIMENSION
  5
1B9
100
AcDbEntity
  8
0
100
AcDbDimension
 62
     3
  6
CONTINUOUS
  2
*D10
 10
574.000001
 20
612.169027
 11
533.010000
 21
612.169027
 70
   160
  1
80
  3
DIM1
100
AcDbAlignedDimension
 13
494.000000
 23
563.500001
 14
574.000000
 24
563.500001
100
AcDbRotatedDimension
1001
ACAD
1000
DSTYLE
1002
{
1070
   271
1070
     1
1002
}
  0
DIMENSION
  5
1BA
100
AcDbEntity
  8
0
100
AcDbDimension
 62
     3
  6
CONTINUOUS
  2
*D11
 10
561.500001
 20
602.446805
 11
533.010000
 21
602.446805
 70
   160
  1
55
  3
DIM1
100
AcDbAlignedDimension
 13
506.500000
 23
551.000001
 14
561.500000
 24
551.000001
100
AcDbRotatedDimension
1001
ACAD
1000
DSTYLE
1002
{
1070
   271
1070
     1
1002
}
  0
DIMENSION
  5
1BB
100
AcDbEntity
  8
0
100
AcDbDimension
 62
     3
  6
CONTINUOUS
  2
*D12
 10
554.000001
 20
591.483449
 11
533.010000
 21
591.483449
 70
   160
  1
40
  3
DIM1
100
AcDbAlignedDimension
 13
514.000000
 23
549.500001
 14
554.000000
 24
549.500001
100
AcDbRotatedDimension
1001
ACAD
1000
DSTYLE
1002
{
1070
   271
1070
     1
1002
}
  0
LINE
  5
1BC
100
AcDbEntity
  8
0
100
AcDbLine
 62
     3
  6
CONTINUOUS
 10
687.504367267768
 20
331.013485962955
 11
686.540529984663
 21
331.500001000000
  0
LINE
  5
1BD
100
AcDbEntity
  8
0
100
AcDbLine
 62
     3
  6
CONTINUOUS
 10
703.997072618018
 20
326.647241769395
 11
695.966970120137
 21
327.862153431168
  0
LINE
  5
1BE
100
AcDbEntity
  8
0
100
AcDbLine
 62
     3
  6
CONTINUOUS
 10
695.966970120137
 20
327.862153431168
 11
686.197877553119
 21
331.500001000000
  0
LINE
  5
1BF
100
AcDbEntity
  8
0
100
AcDbLine
 62
     3
  6
CONTINUOUS
 10
656.693782217524
 20
335.500001000000
 11
748.693782217524
 21
335.500001000000
  0
LINE
  5
1C0
100
AcDbEntity
  8
0
100
AcDbLine
 62
     3
  6
CONTINUOUS
 10
656.693782217524
 20
314.300001000000
 11
748.693782217524
 21
314.300001000000
  0
LINE
  5
1C1
100
AcDbEntity
  8
0
100
AcDbLine
 62
     3
  6
CONTINUOUS
 10
721.802122446881
 20
331.500001000000
 11
748.693782217524
 21
331.500001000000
  0
LINE
  5
1C2
100
AcDbEntity
  8
0
100
AcDbLine
 62
     3
  6
CONTINUOUS
 10
662.876599360045
 20
325.500001000000
 11
740.793782217524
 21
325.500001000000
  0
LINE
  5
1C3
100
AcDbEntity
  8
0
100
AcDbLine
 62
     3
  6
CONTINUOUS
 10
657.543782217524
 20
325.500001000000
 11
657.543782217524
 21
314.300001000000
  0
LINE
  5
1C4
100
AcDbEntity
  8
0
100
AcDbLine
 62
     3
  6
CONTINUOUS
 10
657.658151324426
 20
331.500001000000
 11
657.658151324426
 21
314.300001000000
  0
LINE
  5
1C5
100
AcDbEntity
  8
0
100
AcDbLine
 62
     3
  6
CONTINUOUS
 10
658.365258107075
 20
331.500001000000
 11
658.365258107075
 21
314.300001000000
  0
LINE
  5
1C6
100
AcDbEntity
  8
0
100
AcDbLine
 62
     3
  6
CONTINUOUS
 10
662.169492580392
 20
331.500001000000
 11
662.169492580392
 21
314.300001000000
  0
LINE
  5
1C7
100
AcDbEntity
  8
0
100
AcDbLine
 62
     3
  6
CONTINUOUS
 10
662.876599360045
 20
331.500001000000
 11
662.876599360045
 21
314.300001000000
  0
LINE
  5
1C8
100
AcDbEntity
  8
0
100
AcDbLine
 62
     3
  6
CONTINUOUS
 10
686.381328113377
 20
331.500001000000
 11
656.693782217524
 21
331.500001000000
  0
LINE
  5
1C9
100
AcDbEntity
  8
0
100
AcDbLine
 62
     3
  6
CONTINUOUS
 10
656.693782217524
 20
326.647241769395
 11
656.693782217524
 21
335.500001000000
  0
LINE
  5
1CA
100
AcDbEntity
  8
0
100
AcDbLine
 62
     3
  6
CONTINUOUS
 10
657.543782217524
 20
325.500001000000
 11
657.658151324426
 21
325.500001000000
  0
LINE
  5
1CB
100
AcDbEntity
  8
0
100
AcDbLine
 62
     3
  6
CONTINUOUS
 10
656.693782217524
 20
326.622642509434
 11
657.543782217524
 21
325.500001000000
  0
LINE
  5
1CC
100
AcDbEntity
  8
0
100
AcDbLine
 62
     3
  6
CONTINUOUS
 10
656.693782217524
 20
326.622642509434
 11
656.693782217524
 21
326.647241769395
  0
LINE
  5
1CD
100
AcDbEntity
  8
0
100
AcDbLine
 62
     3
  6
CONTINUOUS
 10
656.693782217524
 20
314.300001000000
 11
656.693782217524
 21
310.300001000000
  0
LINE
  5
1CE
100
AcDbEntity
  8
0
100
AcDbLine
 62
     3
  6
CONTINUOUS
 10
740.793782217524
 20
331.500001000000
 11
740.793782217524
 21
314.300001000000
  0
LINE
  5
1CF
100
AcDbEntity
  8
0
100
AcDbLine
 62
     3
  6
CONTINUOUS
 10
712.033029879863
 20
327.862153431168
 11
721.802122446881
 21
331.500001000000
  0
LINE
  5
1D0
100
AcDbEntity
  8
0
100
AcDbLine
 62
     3
  6
CONTINUOUS
 10
704.002927381982
 20
326.647241769395
 11
712.033029879863
 21
327.862153431168
  0
LINE
  5
1D1
100
AcDbEntity
  8
0
100
AcDbLine
 62
     3
  6
CONTINUOUS
 10
720.495632732232
 20
331.013485962955
 11
721.459470015337
 21
331.500001000000
  0
LINE
  5
1D2
100
AcDbEntity
  8
0
100
AcDbLine
 62
     3
  6
CONTINUOUS
 10
747.843782217524
 20
314.300001000000
 11
747.843782217524
 21
325.500001000000
  0
LINE
  5
1D3
100
AcDbEntity
  8
0
100
AcDbLine
 62
     3
  6
CONTINUOUS
 10
747.093782217524
 20
331.500001000000
 11
747.093782217524
 21
314.300001000000
  0
LINE
  5
1D4
100
AcDbEntity
  8
0
100
AcDbLine
 62
     3
  6
CONTINUOUS
 10
748.693782217524
 20
335.500001000000
 11
748.693782217524
 21
326.622642509434
  0
LINE
  5
1D5
100
AcDbEntity
  8
0
100
AcDbLine
 62
     3
  6
CONTINUOUS
 10
747.843782217524
 20
325.500001000000
 11
748.693782217524
 21
326.622642509434
  0
LINE
  5
1D6
100
AcDbEntity
  8
0
100
AcDbLine
 62
     3
  6
CONTINUOUS
 10
747.093782217524
 20
325.500001000000
 11
747.843782217524
 21
325.500001000000
  0
LINE
  5
1D7
100
AcDbEntity
  8
0
100
AcDbLine
 62
     3
  6
CONTINUOUS
 10
748.693782217524
 20
326.647241769395
 11
748.693782217524
 21
326.622642509434
  0
LINE
  5
1D8
100
AcDbEntity
  8
0
100
AcDbLine
 62
     3
  6
CONTINUOUS
 10
748.693782217524
 20
314.300001000000
 11
748.693782217524
 21
310.300001000000
  0
LINE
  5
1D9
100
AcDbEntity
  8
0
100
AcDbLine
 62
     3
  6
CONTINUOUS
 10
748.693782217524
 20
310.300001000000
 11
656.693782217524
 21
310.300001000000
  0
POINT
  5
1DA
100
AcDbEntity
  8
0
100
AcDbPoint
 62
     1
  6
CONTINUOUS
 10
511.693740886766
 20
319.400010939823
  0
POINT
  5
1DB
100
AcDbEntity
  8
0
100
AcDbPoint
 62
     1
  6
CONTINUOUS
 10
511.693740886766
 20
319.400010939823
  0
POINT
  5
1DC
100
AcDbEntity
  8
0
100
AcDbPoint
 62
     1
  6
CONTINUOUS
 10
511.693740886766
 20
319.400010939823
  0
POINT
  5
1DD
100
AcDbEntity
  8
0
100
AcDbPoint
 62
     1
  6
CONTINUOUS
 10
519.693738577604
 20
320.399993513813
  0
POINT
  5
1DE
100
AcDbEntity
  8
0
100
AcDbPoint
 62
     1
  6
CONTINUOUS
 10
519.693690796091
 20
318.399993464105
  0
POINT
  5
1DF
100
AcDbEntity
  8
0
100
AcDbPoint
 62
     1
  6
CONTINUOUS
 10
523.693712569904
 20
315.400011887659
  0
POINT
  5
1E0
100
AcDbEntity
  8
0
100
AcDbPoint
 62
     1
  6
CONTINUOUS
 10
521.693712520263
 20
315.400062391886
  0
LINE
  5
1E1
100
AcDbEntity
  8
0
100
AcDbLine
 62
     3
  6
CONTINUOUS
 10
486.693782217524
 20
335.500001000000
 11
578.693782217524
 21
335.500001000000
  0
LINE
  5
1E2
100
AcDbEntity
  8
0
100
AcDbLine
 62
     3
  6
CONTINUOUS
 10
486.693782217524
 20
314.300001000000
 11
578.693782217524
 21
314.300001000000
  0
LINE
  5
1E3
100
AcDbEntity
  8
0
100
AcDbLine
 62
     3
  6
CONTINUOUS
 10
551.802122446881
 20
331.500001000000
 11
578.693782217524
 21
331.500001000000
  0
LINE
  5
1E4
100
AcDbEntity
  8
0
100
AcDbLine
 62
     3
  6
CONTINUOUS
 10
525.341034111995
 20
325.500001000000
 11
570.793782217524
 21
325.500001000000
  0
LINE
  5
1E5
100
AcDbEntity
  8
0
100
AcDbLine
 62
     3
  6
CONTINUOUS
 10
531.384637053066
 20
326.647241769395
 11
525.341034111995
 21
327.561606647573
  0
LINE
  5
1E6
100
AcDbEntity
  8
0
100
AcDbLine
 62
     3
  6
CONTINUOUS
 10
522.693690447029
 20
316.356168639997
 11
521.693685230035
 21
315.400035692120
  0
LINE
  5
1E7
100
AcDbEntity
  8
0
100
AcDbLine
 62
     3
  6
CONTINUOUS
 10
522.693697657175
 20
316.356185739935
 11
523.693685870132
 21
315.400038587888
  0
LINE
  5
1E8
100
AcDbEntity
  8
0
100
AcDbLine
 62
     3
  6
CONTINUOUS
 10
523.693740659379
 20
318.684518687539
 11
523.693712570605
 21
315.400093887659
  0
LINE
  5
1E9
100
AcDbEntity
  8
0
100
AcDbLine
 62
     3
  6
CONTINUOUS
 10
521.693740609452
 20
318.684535791766
 11
521.693712520679
 21
315.400110991886
  0
LINE
  5
1EA
100
AcDbEntity
  8
0
100
AcDbLine
 62
     3
  6
CONTINUOUS
 10
487.543782217524
 20
325.500001000000
 11
487.543782217524
 21
314.300001000000
  0
LINE
  5
1EB
100
AcDbEntity
  8
0
100
AcDbLine
 62
     3
  6
CONTINUOUS
 10
487.658151324426
 20
331.500001000000
 11
487.658151324426
 21
314.300001000000
  0
LINE
  5
1EC
100
AcDbEntity
  8
0
100
AcDbLine
 62
     3
  6
CONTINUOUS
 10
488.365258107075
 20
331.500001000000
 11
488.365258107075
 21
314.300001000000
  0
LINE
  5
1ED
100
AcDbEntity
  8
0
100
AcDbLine
 62
     3
  6
CONTINUOUS
 10
503.529870417146
 20
325.500001000000
 11
503.529870417146
 21
314.300001000000
  0
LINE
  5
1EE
100
AcDbEntity
  8
0
100
AcDbLine
 62
     3
  6
CONTINUOUS
 10
492.169492580392
 20
331.500001000000
 11
492.169492580392
 21
314.300001000000
  0
LINE
  5
1EF
100
AcDbEntity
  8
0
100
AcDbLine
 62
     3
  6
CONTINUOUS
 10
492.876599360045
 20
331.500001000000
 11
492.876599360045
 21
314.300001000000
  0
LINE
  5
1F0
100
AcDbEntity
  8
0
100
AcDbLine
 62
     3
  6
CONTINUOUS
 10
486.693782217524
 20
331.500001000000
 11
515.284644111995
 21
331.500001000000
  0
LINE
  5
1F1
100
AcDbEntity
  8
0
100
AcDbLine
 62
     3
  6
CONTINUOUS
 10
500.307623185035
 20
331.500001000000
 11
503.529870417146
 21
325.500001000000
  0
LINE
  5
1F2
100
AcDbEntity
  8
0
100
AcDbLine
 62
     3
  6
CONTINUOUS
 10
486.693782217524
 20
326.647241769395
 11
486.693782217524
 21
335.500001000000
  0
LINE
  5
1F3
100
AcDbEntity
  8
0
100
AcDbLine
 62
     3
  6
CONTINUOUS
 10
487.543782217524
 20
325.500001000000
 11
487.658151324426
 21
325.500001000000
  0
LINE
  5
1F4
100
AcDbEntity
  8
0
100
AcDbLine
 62
     3
  6
CONTINUOUS
 10
486.693782217524
 20
326.622642509434
 11
487.543782217524
 21
325.500001000000
  0
LINE
  5
1F5
100
AcDbEntity
  8
0
100
AcDbLine
 62
     3
  6
CONTINUOUS
 10
486.693782217524
 20
326.622642509434
 11
486.693782217524
 21
326.647241769395
  0
LINE
  5
1F6
100
AcDbEntity
  8
0
100
AcDbLine
 62
     3
  6
CONTINUOUS
 10
513.400561182388
 20
319.900038656507
 11
515.592822882331
 21
319.900022892487
  0
LINE
  5
1F7
100
AcDbEntity
  8
0
100
AcDbLine
 62
     3
  6
CONTINUOUS
 10
513.400553991632
 20
318.900038716532
 11
515.592815691575
 21
318.900022952513
  0
LINE
  5
1F8
100
AcDbEntity
  8
0
100
AcDbLine
 62
     3
  6
CONTINUOUS
 10
503.529870417146
 20
325.500001000000
 11
515.284644111995
 21
325.500001000000
  0
LINE
  5
1F9
100
AcDbEntity
  8
0
100
AcDbLine
 62
     3
  6
CONTINUOUS
 10
511.772342514820
 20
331.500001000000
 11
515.257304933321
 21
325.500001000000
  0
LINE
  5
1FA
100
AcDbEntity
  8
0
100
AcDbLine
 62
     3
  6
CONTINUOUS
 10
515.284644111995
 20
330.867246394317
 11
513.585441988167
 21
331.500001000000
  0
LINE
  5
1FB
100
AcDbEntity
  8
0
100
AcDbLine
 62
     3
  6
CONTINUOUS
 10
511.693716276874
 20
319.400026000000
 11
513.400612395958
 21
318.399997666100
  0
LINE
  5
1FC
100
AcDbEntity
  8
0
100
AcDbLine
 62
     3
  6
CONTINUOUS
 10
513.400550396253
 20
318.400038716545
 11
513.400553991632
 21
318.900038716532
  0
LINE
  5
1FD
100
AcDbEntity
  8
0
100
AcDbLine
 62
     3
  6
CONTINUOUS
 10
513.400561182388
 20
319.900038656507
 11
513.400564777767
 21
320.400038766494
  0
LINE
  5
1FE
100
AcDbEntity
  8
0
100
AcDbLine
 62
     3
  6
CONTINUOUS
 10
511.693701646590
 20
319.399986420105
 11
513.400578077286
 21
320.399971906398
  0
ARC
  5
1FF
100
AcDbEntity
  8
0
100
AcDbCircle
 62
     3
  6
CONTINUOUS
 10
527.784644111995
 20
334.698649615264
 40
5.000000000000
100
AcDbArc
 50
188.032206782286
 51
224.999999987837
  0
ARC
  5
200
100
AcDbEntity
  8
0
100
AcDbCircle
 62
     3
  6
CONTINUOUS
 10
526.384644111995
 20
334.118750627942
 40
5.000000000000
100
AcDbArc
 50
181.360898448435
 51
224.999999987837
  0
ARC
  5
201
100
AcDbEntity
  8
0
100
AcDbCircle
 62
     3
  6
CONTINUOUS
 10
526.184644111995
 20
334.035907915467
 40
5.000000000000
100
AcDbArc
 50
180.411466469322
 51
224.999999987836
  0
LINE
  5
202
100
AcDbEntity
  8
0
100
AcDbLine
 62
     3
  6
CONTINUOUS
 10
525.341034111995
 20
333.000001000000
 11
525.341034111995
 21
325.500001000000
  0
LINE
  5
203
100
AcDbEntity
  8
0
100
AcDbLine
 62
     3
  6
CONTINUOUS
 10
515.284644111995
 20
333.000001000000
 11
515.284644111995
 21
325.500001000000
  0
ARC
  5
204
100
AcDbEntity
  8
0
100
AcDbCircle
 62
     3
  6
CONTINUOUS
 10
524.784644111995
 20
333.456008928145
 40
5.000000000000
100
AcDbArc
 50
179.999999990266
 51
224.999999987836
  0
LINE
  5
205
100
AcDbEntity
  8
0
100
AcDbLine
 62
     3
  6
CONTINUOUS
 10
519.953394111995
 20
334.000001000000
 11
519.900665061975
 21
334.843665800309
  0
ARC
  5
206
100
AcDbEntity
  8
0
100
AcDbCircle
 62
     3
  6
CONTINUOUS
 10
519.202028257037
 20
334.800001000000
 40
0.700000000000
100
AcDbArc
 50
3.576334374788
 51
89.999999995124
  0
LINE
  5
207
100
AcDbEntity
  8
0
100
AcDbLine
 62
     3
  6
CONTINUOUS
 10
516.284644111995
 20
334.000001000000
 11
519.953394111995
 21
334.000001000000
  0
LINE
  5
208
100
AcDbEntity
  8
0
100
AcDbLine
 62
     3
  6
CONTINUOUS
 10
516.284644111995
 20
334.000001000000
 11
519.953394111995
 21
334.000001000000
  0
ARC
  5
209
100
AcDbEntity
  8
0
100
AcDbCircle
 62
     3
  6
CONTINUOUS
 10
516.284644111995
 20
333.000001000000
 40
1.000000000000
100
AcDbArc
 50
89.999999995124
 51
179.999999990266
  0
ARC
  5
20A
100
AcDbEntity
  8
0
100
AcDbCircle
 62
     3
  6
CONTINUOUS
 10
518.484644111995
 20
333.400001000000
 40
0.700000000000
100
AcDbArc
 50
179.999999990266
 51
269.999999985485
  0
LINE
  5
20B
100
AcDbEntity
  8
0
100
AcDbLine
 62
     3
  6
CONTINUOUS
 10
517.784644111995
 20
334.000001000000
 11
517.784644111995
 21
333.400001000000
  0
LINE
  5
20C
100
AcDbEntity
  8
0
100
AcDbLine
 62
     3
  6
CONTINUOUS
 10
519.784644111995
 20
334.000001000000
 11
519.784644111995
 21
333.456008928145
  0
LINE
  5
20D
100
AcDbEntity
  8
0
100
AcDbLine
 62
     3
  6
CONTINUOUS
 10
519.842129366181
 20
332.700001000000
 11
518.484644111995
 21
332.700001000000
  0
LINE
  5
20E
100
AcDbEntity
  8
0
100
AcDbLine
 62
     3
  6
CONTINUOUS
 10
520.985207786266
 20
334.000001000000
 11
521.068623162014
 21
334.843665800309
  0
ARC
  5
20F
100
AcDbEntity
  8
0
100
AcDbCircle
 62
     3
  6
CONTINUOUS
 10
521.767259966952
 20
334.800001000000
 40
0.700000000000
100
AcDbArc
 50
89.999999995124
 51
176.423665615460
  0
ARC
  5
210
100
AcDbEntity
  8
0
100
AcDbCircle
 62
     3
  6
CONTINUOUS
 10
522.484644111995
 20
333.400001000000
 40
0.700000000000
100
AcDbArc
 50
327.348573505212
 51
359.999999980616
  0
LINE
  5
211
100
AcDbEntity
  8
0
100
AcDbLine
 62
     3
  6
CONTINUOUS
 10
523.184644111995
 20
334.000001000000
 11
523.184644111995
 21
333.400001000000
  0
LINE
  5
212
100
AcDbEntity
  8
0
100
AcDbLine
 62
     3
  6
CONTINUOUS
 10
521.590152533817
 20
332.700001000000
 11
521.366412827259
 21
332.700001000000
  0
ARC
  5
213
100
AcDbEntity
  8
0
100
AcDbCircle
 62
     3
  6
CONTINUOUS
 10
524.341034111995
 20
333.000001000000
 40
1.000000000000
100
AcDbArc
 50
359.999999980616
 51
89.999999975758
  0
LINE
  5
214
100
AcDbEntity
  8
0
100
AcDbLine
 62
     3
  6
CONTINUOUS
 10
520.985207786266
 20
334.000001000000
 11
524.341034111995
 21
334.000001000000
  0
LINE
  5
215
100
AcDbEntity
  8
0
100
AcDbLine
 62
     3
  6
CONTINUOUS
 10
520.985207786266
 20
334.000001000000
 11
524.341034111995
 21
334.000001000000
  0
LINE
  5
216
100
AcDbEntity
  8
0
100
AcDbLine
 62
     3
  6
CONTINUOUS
 10
517.930394111995
 20
332.099851000000
 11
519.972073523013
 21
332.099851000000
  0
LINE
  5
217
100
AcDbEntity
  8
0
100
AcDbLine
 62
     3
  6
CONTINUOUS
 10
517.930144111995
 20
332.099851000000
 11
515.284644111995
 21
325.500001000000
  0
LINE
  5
218
100
AcDbEntity
  8
0
100
AcDbLine
 62
     3
  6
CONTINUOUS
 10
515.592772791795
 20
318.900053532821
 11
516.409221196267
 21
318.400029721926
  0
LINE
  5
219
100
AcDbEntity
  8
0
100
AcDbLine
 62
     3
  6
CONTINUOUS
 10
518.737583186655
 20
319.399970089268
 11
519.693717495895
 21
318.399966173913
  0
LINE
  5
21A
100
AcDbEntity
  8
0
100
AcDbLine
 62
     3
  6
CONTINUOUS
 10
515.592846681804
 20
319.899949522315
 11
516.409273677177
 21
320.399945861601
  0
LINE
  5
21B
100
AcDbEntity
  8
0
100
AcDbLine
 62
     3
  6
CONTINUOUS
 10
516.409231777689
 20
320.400017131902
 11
519.693656577604
 21
320.399993514403
  0
LINE
  5
21C
100
AcDbEntity
  8
0
100
AcDbLine
 62
     3
  6
CONTINUOUS
 10
518.737566086706
 20
319.399977299391
 11
519.693711877412
 21
320.399966814005
  0
LINE
  5
21D
100
AcDbEntity
  8
0
100
AcDbLine
 62
     3
  6
CONTINUOUS
 10
516.409217396176
 20
318.400017081954
 11
519.693642196091
 21
318.399993464455
  0
LINE
  5
21E
100
AcDbEntity
  8
0
100
AcDbLine
 62
     3
  6
CONTINUOUS
 10
523.808045983571
 20
329.341438232025
 11
522.818096489910
 21
328.351488738364
  0
LINE
  5
21F
100
AcDbEntity
  8
0
100
AcDbLine
 62
     3
  6
CONTINUOUS
 10
524.249110206062
 20
331.163115709331
 11
524.939416833470
 21
330.472809081923
  0
LINE
  5
220
100
AcDbEntity
  8
0
100
AcDbLine
 62
     3
  6
CONTINUOUS
 10
523.513081662808
 20
332.099851000000
 11
525.341034111995
 21
332.099851000000
  0
LINE
  5
221
100
AcDbEntity
  8
0
100
AcDbLine
 62
     3
  6
CONTINUOUS
 10
521.574689272729
 20
332.099851000000
 11
521.810363371562
 21
332.099851000000
  0
LINE
  5
222
100
AcDbEntity
  8
0
100
AcDbLine
 62
     3
  6
CONTINUOUS
 10
522.849110206062
 20
330.583216722009
 11
523.949467339809
 21
329.482859588262
  0
LINE
  5
223
100
AcDbEntity
  8
0
100
AcDbLine
 62
     3
  6
CONTINUOUS
 10
521.249110206062
 20
329.920475022212
 11
522.818096489910
 21
328.351488738364
  0
LINE
  5
224
100
AcDbEntity
  8
0
100
AcDbLine
 62
     3
  6
CONTINUOUS
 10
522.649110206062
 20
330.500374009534
 11
523.808045983571
 21
329.341438232025
  0
LINE
  5
225
100
AcDbEntity
  8
0
100
AcDbLine
 62
     3
  6
CONTINUOUS
 10
524.939416833470
 20
330.472809081923
 11
523.949467339809
 21
329.482859588262
  0
LINE
  5
226
100
AcDbEntity
  8
0
100
AcDbLine
 62
     3
  6
CONTINUOUS
 10
522.193766339895
 20
321.693198515599
 11
522.193747591424
 21
319.500936815680
  0
LINE
  5
227
100
AcDbEntity
  8
0
100
AcDbLine
 62
     3
  6
CONTINUOUS
 10
523.193766279858
 20
321.693189963487
 11
523.193747531388
 21
319.500928263567
  0
LINE
  5
228
100
AcDbEntity
  8
0
100
AcDbLine
 62
     3
  6
CONTINUOUS
 10
521.693766339913
 20
321.693202791656
 11
522.193766339895
 21
321.693198515599
  0
LINE
  5
229
100
AcDbEntity
  8
0
100
AcDbLine
 62
     3
  6
CONTINUOUS
 10
522.193778171791
 20
319.500979715418
 11
521.693753249419
 21
318.684531991658
  0
LINE
  5
22A
100
AcDbEntity
  8
0
100
AcDbLine
 62
     3
  6
CONTINUOUS
 10
522.693755946977
 20
323.400035549694
 11
521.693725289383
 21
321.693140792007
  0
LINE
  5
22B
100
AcDbEntity
  8
0
100
AcDbLine
 62
     3
  6
CONTINUOUS
 10
522.693716367102
 20
323.400050180033
 11
523.693699529726
 21
321.693172388001
  0
LINE
  5
22C
100
AcDbEntity
  8
0
100
AcDbLine
 62
     3
  6
CONTINUOUS
 10
523.193674161184
 20
319.500904464194
 11
523.693669389020
 21
318.684476788149
  0
LINE
  5
22D
100
AcDbEntity
  8
0
100
AcDbLine
 62
     3
  6
CONTINUOUS
 10
523.193766279858
 20
321.693189963487
 11
523.693766389840
 21
321.693185687429
  0
LINE
  5
22E
100
AcDbEntity
  8
0
100
AcDbLine
 62
     3
  6
CONTINUOUS
 10
486.693782217524
 20
314.300001000000
 11
486.693782217524
 21
310.300001000000
  0
ARC
  5
22F
100
AcDbEntity
  8
0
100
AcDbCircle
 62
     3
  6
CONTINUOUS
 10
498.581784181461
 20
311.000001000000
 40
0.700000000000
100
AcDbArc
 50
269.999999985475
 51
358.925829982302
  0
ARC
  5
230
100
AcDbEntity
  8
0
100
AcDbCircle
 62
     3
  6
CONTINUOUS
 10
501.205780253586
 20
311.000001000000
 40
0.700000000000
100
AcDbArc
 50
181.074169988580
 51
269.999999985475
  0
LINE
  5
231
100
AcDbEntity
  8
0
100
AcDbLine
 62
     3
  6
CONTINUOUS
 10
499.343782217524
 20
314.300001000000
 11
499.281661167021
 21
310.986878306521
  0
LINE
  5
232
100
AcDbEntity
  8
0
100
AcDbLine
 62
     3
  6
CONTINUOUS
 10
499.893782217524
 20
314.300051000000
 11
499.893782217524
 21
309.300001000000
  0
LINE
  5
233
100
AcDbEntity
  8
0
100
AcDbLine
 62
     3
  6
CONTINUOUS
 10
500.443782217524
 20
314.300001000000
 11
500.505903268026
 21
310.986878306521
  0
LINE
  5
234
100
AcDbEntity
  8
0
100
AcDbLine
 62
     3
  6
CONTINUOUS
 10
570.793782217524
 20
331.500001000000
 11
570.793782217524
 21
314.300001000000
  0
LINE
  5
235
100
AcDbEntity
  8
0
100
AcDbLine
 62
     3
  6
CONTINUOUS
 10
542.033029879863
 20
327.862153431168
 11
551.802122446881
 21
331.500001000000
  0
LINE
  5
236
100
AcDbEntity
  8
0
100
AcDbLine
 62
     3
  6
CONTINUOUS
 10
534.002927381982
 20
326.647241769395
 11
542.033029879863
 21
327.862153431168
  0
LINE
  5
237
100
AcDbEntity
  8
0
100
AcDbLine
 62
     3
  6
CONTINUOUS
 10
531.384637053066
 20
326.647241769395
 11
534.002927381982
 21
326.647241769395
  0
LINE
  5
238
100
AcDbEntity
  8
0
100
AcDbLine
 62
     3
  6
CONTINUOUS
 10
550.495632732232
 20
331.013485962955
 11
551.459470015337
 21
331.500001000000
  0
LINE
  5
239
100
AcDbEntity
  8
0
100
AcDbLine
 62
     3
  6
CONTINUOUS
 10
577.843782217524
 20
314.300001000000
 11
577.843782217524
 21
325.500001000000
  0
LINE
  5
23A
100
AcDbEntity
  8
0
100
AcDbLine
 62
     3
  6
CONTINUOUS
 10
577.093782217524
 20
331.500001000000
 11
577.093782217524
 21
314.300001000000
  0
LINE
  5
23B
100
AcDbEntity
  8
0
100
AcDbLine
 62
     3
  6
CONTINUOUS
 10
578.693782217524
 20
335.500001000000
 11
578.693782217524
 21
326.622642509434
  0
LINE
  5
23C
100
AcDbEntity
  8
0
100
AcDbLine
 62
     3
  6
CONTINUOUS
 10
577.843782217524
 20
325.500001000000
 11
578.693782217524
 21
326.622642509434
  0
LINE
  5
23D
100
AcDbEntity
  8
0
100
AcDbLine
 62
     3
  6
CONTINUOUS
 10
577.093782217524
 20
325.500001000000
 11
577.843782217524
 21
325.500001000000
  0
LINE
  5
23E
100
AcDbEntity
  8
0
100
AcDbLine
 62
     3
  6
CONTINUOUS
 10
578.693782217524
 20
326.647241769395
 11
578.693782217524
 21
326.622642509434
  0
LINE
  5
23F
100
AcDbEntity
  8
0
100
AcDbLine
 62
     3
  6
CONTINUOUS
 10
578.693782217524
 20
314.300001000000
 11
578.693782217524
 21
310.300001000000
  0
LINE
  5
240
100
AcDbEntity
  8
0
100
AcDbLine
 62
     3
  6
CONTINUOUS
 10
578.693782217524
 20
310.300001000000
 11
486.693782217524
 21
310.300001000000
  0
ELLIPSE
  5
241
100
AcDbEntity
  8
0
100
AcDbEllipse
 62
     3
  6
CONTINUOUS
 10
520.484644111995
 20
334.881442871859
 11
0.700000000000
 21
0.017953457734
210
0.000000000000
220
0.000000000000
230
1.000000000000
 40
0.635816064185
 41
6.689709759860
 42
8.968169392296
  0
LINE
  5
242
100
AcDbEntity
  8
0
100
AcDbLine
 62
     0
  6
CENTER2
 48
10.0
 10
534.000000000000
 20
291.128851354122
 11
534.000000000000
 21
581.761507481337
  0
LINE
  5
243
100
AcDbEntity
  8
0
100
AcDbLine
 62
     0
  6
CONTINUOUS
 10
691.000000000000
 20
179.000000000000
 11
719.000000000000
 21
170.000000000000
  0
LINE
  5
244
100
AcDbEntity
  8
0
100
AcDbLine
 62
     0
  6
CONTINUOUS
 10
691.000000000000
 20
187.000000000000
 11
719.000000000000
 21
179.000000000000
  0
LINE
  5
245
100
AcDbEntity
  8
0
100
AcDbLine
 62
     0
  6
CONTINUOUS
 10
689.000000000000
 20
197.000000000000
 11
719.000000000000
 21
187.000000000000
  0
LINE
  5
246
100
AcDbEntity
  8
0
100
AcDbLine
 62
     0
  6
CONTINUOUS
 10
604.000000000000
 20
197.000000000000
 11
684.000000000000
 21
170.000000000000
  0
LINE
  5
247
100
AcDbEntity
  8
0
100
AcDbLine
 62
     2
  6
CONTINUOUS
 10
701.224769132100
 20
305.300001000000
 11
674.431370849898
 21
305.300001000000
  0
LINE
  5
248
100
AcDbEntity
  8
0
100
AcDbLine
 62
     2
  6
CONTINUOUS
 10
674.762741699797
 20
306.900001000000
 11
701.224769132100
 21
306.900001000000
  0
LINE
  5
249
100
AcDbEntity
  8
0
100
AcDbLine
 62
     2
  6
CONTINUOUS
 10
673.162741699797
 20
308.500001000000
 11
734.837258300203
 21
308.500001000000
  0
LINE
  5
24A
100
AcDbEntity
  8
0
100
AcDbLine
 62
     2
  6
CONTINUOUS
 10
706.775230867900
 20
305.300001000000
 11
733.568629150102
 21
305.300001000000
  0
ARC
  5
24B
100
AcDbEntity
  8
0
100
AcDbCircle
 62
     2
  6
CONTINUOUS
 10
706.775230867900
 20
306.100001000000
 40
0.800000000000
100
AcDbArc
 50
89.999999995158
 51
269.999999985441
  0
ARC
  5
24C
100
AcDbEntity
  8
0
100
AcDbCircle
 62
     3
  6
CONTINUOUS
 10
744.750003000000
 20
308.700001000000
 40
2.000000000000
100
AcDbArc
 50
179.999999990317
 51
269.999999985475
  0
ARC
  5
24D
100
AcDbEntity
  8
0
100
AcDbCircle
 62
     3
  6
CONTINUOUS
 10
745.750003000000
 20
308.700001000000
 40
2.000000000000
100
AcDbArc
 50
269.999999985475
 51
359.999999980633
  0
LINE
  5
24E
100
AcDbEntity
  8
0
100
AcDbLine
 62
     3
  6
CONTINUOUS
 10
745.750003000000
 20
306.700001000000
 11
744.750003000000
 21
306.700001000000
  0
ARC
  5
24F
100
AcDbEntity
  8
0
100
AcDbCircle
 62
     3
  6
CONTINUOUS
 10
662.250003000000
 20
308.700001000000
 40
2.000000000000
100
AcDbArc
 50
179.999999990317
 51
269.999999985475
  0
ARC
  5
250
100
AcDbEntity
  8
0
100
AcDbCircle
 62
     3
  6
CONTINUOUS
 10
663.250003000000
 20
308.700001000000
 40
2.000000000000
100
AcDbArc
 50
269.999999985475
 51
359.999999980633
  0
LINE
  5
251
100
AcDbEntity
  8
0
100
AcDbLine
 62
     3
  6
CONTINUOUS
 10
663.250003000000
 20
306.700001000000
 11
662.250003000000
 21
306.700001000000
  0
LINE
  5
252
100
AcDbEntity
  8
0
100
AcDbLine
 62
     3
  6
CONTINUOUS
 10
675.649996000000
 20
310.300001000000
 11
672.349996000000
 21
310.300001000000
  0
LINE
  5
253
100
AcDbEntity
  8
0
100
AcDbLine
 62
     2
  6
CONTINUOUS
 10
660.050000000000
 20
308.500001000000
 11
670.900000000000
 21
308.500001000000
  0
ARC
  5
254
100
AcDbEntity
  8
0
100
AcDbCircle
 62
     2
  6
CONTINUOUS
 10
674.431370849898
 20
306.100001000000
 40
0.800000000000
100
AcDbArc
 50
224.999999987869
 51
269.999999985441
  0
ARC
  5
255
100
AcDbEntity
  8
0
100
AcDbCircle
 62
     2
  6
CONTINUOUS
 10
671.031370849898
 20
309.500001000000
 40
0.800000000000
100
AcDbArc
 50
44.999999997515
 51
89.999999995158
  0
ARC
  5
256
100
AcDbEntity
  8
0
100
AcDbCircle
 62
     2
  6
CONTINUOUS
 10
659.750000000000
 20
309.500001000000
 40
0.800000000000
100
AcDbArc
 50
179.999999990300
 51
269.999999985441
  0
ARC
  5
257
100
AcDbEntity
  8
0
100
AcDbCircle
 62
     2
  6
CONTINUOUS
 10
659.750000000000
 20
309.500001000000
 40
0.800000000000
100
AcDbArc
 50
89.999999995158
 51
179.999999990300
  0
ARC
  5
258
100
AcDbEntity
  8
0
100
AcDbCircle
 62
     2
  6
CONTINUOUS
 10
733.568629150102
 20
306.100001000000
 40
0.800000000000
100
AcDbArc
 50
269.999999985441
 51
314.999999983015
  0
ARC
  5
259
100
AcDbEntity
  8
0
100
AcDbCircle
 62
     2
  6
CONTINUOUS
 10
736.968629150101
 20
309.500001000000
 40
0.800000000000
100
AcDbArc
 50
89.999999995158
 51
134.999999992730
  0
ARC
  5
25A
100
AcDbEntity
  8
0
100
AcDbCircle
 62
     2
  6
CONTINUOUS
 10
748.250000000000
 20
309.500001000000
 40
0.800000000000
100
AcDbArc
 50
269.999999985441
 51
359.999999980582
  0
ARC
  5
25B
100
AcDbEntity
  8
0
100
AcDbCircle
 62
     2
  6
CONTINUOUS
 10
748.250000000000
 20
309.500001000000
 40
0.800000000000
100
AcDbArc
 50
359.999999980582
 51
89.999999975792
  0
ARC
  5
25C
100
AcDbEntity
  8
0
100
AcDbCircle
 62
     2
  6
CONTINUOUS
 10
701.224769132100
 20
306.100001000000
 40
0.800000000000
100
AcDbArc
 50
269.999999985441
 51
89.999999975792
  0
ARC
  5
25D
100
AcDbEntity
  8
0
100
AcDbCircle
 62
     2
  6
CONTINUOUS
 10
747.950000000000
 20
307.700001000000
 40
0.800000000000
100
AcDbArc
 50
269.999999985441
 51
359.999999980582
  0
ARC
  5
25E
100
AcDbEntity
  8
0
100
AcDbCircle
 62
     2
  6
CONTINUOUS
 10
747.950000000000
 20
307.700001000000
 40
0.800000000000
100
AcDbArc
 50
359.999999980582
 51
89.999999975792
  0
LINE
  5
25F
100
AcDbEntity
  8
0
100
AcDbLine
 62
     2
  6
CONTINUOUS
 10
674.762741699797
 20
306.900001000000
 11
671.597056274848
 21
310.065686424949
  0
LINE
  5
260
100
AcDbEntity
  8
0
100
AcDbLine
 62
     2
  6
CONTINUOUS
 10
673.865685424949
 20
305.534315575051
 11
670.700000000000
 21
308.700001000000
  0
LINE
  5
261
100
AcDbEntity
  8
0
100
AcDbLine
 62
     2
  6
CONTINUOUS
 10
670.700000000000
 20
308.700001000000
 11
670.534660953732
 21
308.700001000000
  0
LINE
  5
262
100
AcDbEntity
  8
0
100
AcDbLine
 62
     2
  6
CONTINUOUS
 10
736.402943725152
 20
310.065686424949
 11
733.237258300203
 21
306.900001000000
  0
LINE
  5
263
100
AcDbEntity
  8
0
100
AcDbLine
 62
     2
  6
CONTINUOUS
 10
736.968629150101
 20
310.300001000000
 11
748.250000000000
 21
310.300001000000
  0
LINE
  5
264
100
AcDbEntity
  8
0
100
AcDbLine
 62
     2
  6
CONTINUOUS
 10
746.621782788708
 20
306.900001000000
 11
747.950000000000
 21
306.900001000000
  0
LINE
  5
265
100
AcDbEntity
  8
0
100
AcDbLine
 62
     2
  6
CONTINUOUS
 10
743.878223211292
 20
306.900001000000
 11
735.500000000000
 21
306.900001000000
  0
LINE
  5
266
100
AcDbEntity
  8
0
100
AcDbLine
 62
     2
  6
CONTINUOUS
 10
747.739977874213
 20
308.500001000000
 11
747.950000000000
 21
308.500001000000
  0
LINE
  5
267
100
AcDbEntity
  8
0
100
AcDbLine
 62
     2
  6
CONTINUOUS
 10
742.760028125787
 20
308.500001000000
 11
737.100000000000
 21
308.500001000000
  0
LINE
  5
268
100
AcDbEntity
  8
0
100
AcDbLine
 62
     2
  6
CONTINUOUS
 10
737.300000000000
 20
308.700001000000
 11
734.134314575051
 21
305.534315575051
  0
LINE
  5
269
100
AcDbEntity
  8
0
100
AcDbLine
 62
     2
  6
CONTINUOUS
 10
737.465339046268
 20
308.700001000000
 11
737.300000000000
 21
308.700001000000
  0
LINE
  5
26A
100
AcDbEntity
  8
0
100
AcDbLine
 62
     2
  6
CONTINUOUS
 10
748.250000000000
 20
308.700001000000
 11
737.465339046268
 21
308.700001000000
  0
LINE
  5
26B
100
AcDbEntity
  8
0
100
AcDbLine
 62
     2
  6
CONTINUOUS
 10
701.224769132100
 20
306.900001000000
 11
706.775230867900
 21
306.900001000000
  0
LINE
  5
26C
100
AcDbEntity
  8
0
100
AcDbLine
 62
     2
  6
CONTINUOUS
 10
706.775230867900
 20
306.900001000000
 11
733.237258300203
 21
306.900001000000
  0
LINE
  5
26D
100
AcDbEntity
  8
0
100
AcDbLine
 62
     2
  6
CONTINUOUS
 10
665.239977874213
 20
308.500001000000
 11
670.900000000000
 21
308.500001000000
  0
LINE
  5
26E
100
AcDbEntity
  8
0
100
AcDbLine
 62
     2
  6
CONTINUOUS
 10
660.260028125787
 20
308.500001000000
 11
660.050000000000
 21
308.500001000000
  0
LINE
  5
26F
100
AcDbEntity
  8
0
100
AcDbLine
 62
     2
  6
CONTINUOUS
 10
670.534660953732
 20
308.700001000000
 11
659.750000000000
 21
308.700001000000
  0
ARC
  5
270
100
AcDbEntity
  8
0
100
AcDbCircle
 62
     2
  6
CONTINUOUS
 10
660.050000000000
 20
307.700001000000
 40
0.800000000000
100
AcDbArc
 50
89.999999995158
 51
179.999999990300
  0
ARC
  5
271
100
AcDbEntity
  8
0
100
AcDbCircle
 62
     2
  6
CONTINUOUS
 10
660.050000000000
 20
307.700001000000
 40
0.800000000000
100
AcDbArc
 50
179.999999990300
 51
269.999999985441
  0
ARC
  5
272
100
AcDbEntity
  8
0
100
AcDbCircle
 62
     2
  6
CONTINUOUS
 10
660.050000000000
 20
307.700001000000
 40
0.800000000000
100
AcDbArc
 50
89.999999995158
 51
179.999999990300
  0
ARC
  5
273
100
AcDbEntity
  8
0
100
AcDbCircle
 62
     2
  6
CONTINUOUS
 10
660.050000000000
 20
307.700001000000
 40
0.800000000000
100
AcDbArc
 50
179.999999990300
 51
269.999999985441
  0
LINE
  5
274
100
AcDbEntity
  8
0
100
AcDbLine
 62
     2
  6
CONTINUOUS
 10
718.509103385427
 20
310.300001000000
 11
659.750000000000
 21
310.300001000000
  0
LINE
  5
275
100
AcDbEntity
  8
0
100
AcDbLine
 62
     2
  6
CONTINUOUS
 10
660.050000000000
 20
306.900001000000
 11
672.500000000000
 21
306.900001000000
  0
LINE
  5
276
100
AcDbEntity
  8
0
100
AcDbLine
 62
     2
  6
CONTINUOUS
 10
664.121782788708
 20
306.900001000000
 11
672.500000000000
 21
306.900001000000
  0
LINE
  5
277
100
AcDbEntity
  8
0
100
AcDbLine
 62
     2
  6
CONTINUOUS
 10
661.378223211292
 20
306.900001000000
 11
660.050000000000
 21
306.900001000000
  0
TEXT
  5
278
100
AcDbEntity
  8
0
100
AcDbText
 62
     0
  6
CONTINUOUS
 10
645.198599427938
 20
149.082063019276
 40
3.000000000000
 41
1.000000000000
 50
0.000000000000
  1
190307
100
AcDbText
  0
TEXT
  5
279
100
AcDbEntity
  8
0
100
AcDbText
 62
     0
  6
CONTINUOUS
 10
648.725585937500
 20
157.027277350426
 40
4.000000000000
 41
1.000000000000
 50
0.000000000000
  1
中　務
100
AcDbText
  0
TEXT
  5
27A
100
AcDbEntity
  8
0
100
AcDbText
 62
     0
  6
CONTINUOUS
 10
668.481703281403
 20
157.027277350426
 40
4.000000000000
 41
1.000000000000
 50
0.000000000000
  1
中　務
100
AcDbText
  0
TEXT
  5
27B
100
AcDbEntity
  8
0
100
AcDbText
 62
     0
  6
CONTINUOUS
 10
665.229107290506
 20
149.082063019276
 40
3.000000000000
 41
1.000000000000
 50
0.000000000000
  1
190307
100
AcDbText
  0
TEXT
  5
27C
100
AcDbEntity
  8
0
100
AcDbText
 62
     0
  6
CONTINUOUS
 10
730.469617478549
 20
164.984362386167
 40
3.000000000000
 41
1.000000000000
 50
0.000000000000
  1
外観図
100
AcDbText
  0
TEXT
  5
27D
100
AcDbEntity
  8
0
100
AcDbText
 62
     0
  6
CENTER2
 48
10.0
 10
730.177281752229
 20
174.498866409063
 40
2.500000000000
 41
1.000000000000
 50
0.000000000000
  1
UT-4040J-HS100
100
AcDbText
  0
TEXT
  5
27E
100
AcDbEntity
  8
0
100
AcDbText
 62
     0
  6
CENTER2
 48
10.0
 10
729.795463740826
 20
181.753412306309
 40
2.500000000000
 41
1.000000000000
 50
0.000000000000
  1
40ペルチェユニット
100
AcDbText
  0
POINT
  5
27F
100
AcDbEntity
  8
0
100
AcDbPoint
 62
     1
  6
CONTINUOUS
 10
669.000000000000
 20
371.300001000000
  0
POINT
  5
280
100
AcDbEntity
  8
0
100
AcDbPoint
 62
     1
  6
CONTINUOUS
 10
739.000000000000
 20
371.300001000000
  0
POINT
  5
281
100
AcDbEntity
  8
0
100
AcDbPoint
 62
     1
  6
CONTINUOUS
 10
552.750000000000
 20
485.500001000000
  0
POINT
  5
282
100
AcDbEntity
  8
0
100
AcDbPoint
 62
     1
  6
CONTINUOUS
 10
492.750000000000
 20
484.250001000000
  0
POINT
  5
283
100
AcDbEntity
  8
0
100
AcDbPoint
 62
     1
  6
CONTINUOUS
 10
575.250000000000
 20
484.250001000000
  0
POINT
  5
284
100
AcDbEntity
  8
0
100
AcDbPoint
 62
     1
  6
CONTINUOUS
 10
575.250000000000
 20
566.750001000000
  0
POINT
  5
285
100
AcDbEntity
  8
0
100
AcDbPoint
 62
     1
  6
CONTINUOUS
 10
492.750000000000
 20
566.750001000000
  0
POINT
  5
286
100
AcDbEntity
  8
0
100
AcDbPoint
 62
     1
  6
CONTINUOUS
 10
492.750000000000
 20
484.250001000000
  0
POINT
  5
287
100
AcDbEntity
  8
0
100
AcDbPoint
 62
     1
  6
CONTINUOUS
 10
575.250000000000
 20
484.250001000000
  0
POINT
  5
288
100
AcDbEntity
  8
0
100
AcDbPoint
 62
     1
  6
CONTINUOUS
 10
575.250000000000
 20
566.750001000000
  0
POINT
  5
289
100
AcDbEntity
  8
0
100
AcDbPoint
 62
     1
  6
CONTINUOUS
 10
664.000000000000
 20
377.375001000000
  0
POINT
  5
28A
100
AcDbEntity
  8
0
100
AcDbPoint
 62
     0
  6
CONTINUOUS
 10
514.000000000000
 20
545.500001000000
  0
POINT
  5
28B
100
AcDbEntity
  8
0
100
AcDbPoint
 62
     0
  6
CONTINUOUS
 10
514.000000000000
 20
505.500001000000
  0
POINT
  5
28C
100
AcDbEntity
  8
0
100
AcDbPoint
 62
     0
  6
CONTINUOUS
 10
554.000000000000
 20
505.500001000000
  0
POINT
  5
28D
100
AcDbEntity
  8
0
100
AcDbPoint
 62
     0
  6
CONTINUOUS
 10
554.000000000000
 20
545.500001000000
  0
LINE
  5
28E
100
AcDbEntity
  8
0
100
AcDbLine
 62
     3
  6
CONTINUOUS
 10
580.760000000000
 20
335.500001000000
 11
582.760000000000
 21
335.500001000000
  0
LINE
  5
28F
100
AcDbEntity
  8
0
100
AcDbLine
 62
     3
  6
CONTINUOUS
 10
576.780000000000
 20
335.500001000000
 11
576.780000000000
 21
369.500001000000
  0
LINE
  5
290
100
AcDbEntity
  8
0
100
AcDbLine
 62
     3
  6
CONTINUOUS
 10
576.780000000000
 20
335.500001000000
 11
578.780000000000
 21
335.500001000000
  0
LINE
  5
291
100
AcDbEntity
  8
0
100
AcDbLine
 62
     3
  6
CONTINUOUS
 10
578.780000000000
 20
335.500001000000
 11
578.780000000000
 21
369.500001000000
  0
LINE
  5
292
100
AcDbEntity
  8
0
100
AcDbLine
 62
     3
  6
CONTINUOUS
 10
572.800000000000
 20
335.500001000000
 11
572.800000000000
 21
369.500001000000
  0
LINE
  5
293
100
AcDbEntity
  8
0
100
AcDbLine
 62
     3
  6
CONTINUOUS
 10
572.800000000000
 20
335.500001000000
 11
574.800000000000
 21
335.500001000000
  0
LINE
  5
294
100
AcDbEntity
  8
0
100
AcDbLine
 62
     3
  6
CONTINUOUS
 10
574.800000000000
 20
335.500001000000
 11
574.800000000000
 21
369.500001000000
  0
LINE
  5
295
100
AcDbEntity
  8
0
100
AcDbLine
 62
     3
  6
CONTINUOUS
 10
568.820000000000
 20
335.500001000000
 11
568.820000000000
 21
369.500001000000
  0
LINE
  5
296
100
AcDbEntity
  8
0
100
AcDbLine
 62
     3
  6
CONTINUOUS
 10
568.820000000000
 20
335.500001000000
 11
570.820000000000
 21
335.500001000000
  0
LINE
  5
297
100
AcDbEntity
  8
0
100
AcDbLine
 62
     3
  6
CONTINUOUS
 10
570.820000000000
 20
335.500001000000
 11
570.820000000000
 21
369.500001000000
  0
LINE
  5
298
100
AcDbEntity
  8
0
100
AcDbLine
 62
     3
  6
CONTINUOUS
 10
564.840000000000
 20
335.500001000000
 11
564.840000000000
 21
369.500001000000
  0
LINE
  5
299
100
AcDbEntity
  8
0
100
AcDbLine
 62
     3
  6
CONTINUOUS
 10
564.840000000000
 20
335.500001000000
 11
566.840000000000
 21
335.500001000000
  0
LINE
  5
29A
100
AcDbEntity
  8
0
100
AcDbLine
 62
     3
  6
CONTINUOUS
 10
566.840000000000
 20
335.500001000000
 11
566.840000000000
 21
369.500001000000
  0
LINE
  5
29B
100
AcDbEntity
  8
0
100
AcDbLine
 62
     3
  6
CONTINUOUS
 10
560.860000000000
 20
335.500001000000
 11
560.860000000000
 21
369.500001000000
  0
LINE
  5
29C
100
AcDbEntity
  8
0
100
AcDbLine
 62
     3
  6
CONTINUOUS
 10
560.860000000000
 20
335.500001000000
 11
562.860000000000
 21
335.500001000000
  0
LINE
  5
29D
100
AcDbEntity
  8
0
100
AcDbLine
 62
     3
  6
CONTINUOUS
 10
562.860000000000
 20
335.500001000000
 11
562.860000000000
 21
369.500001000000
  0
LINE
  5
29E
100
AcDbEntity
  8
0
100
AcDbLine
 62
     3
  6
CONTINUOUS
 10
556.880000000000
 20
335.500001000000
 11
556.880000000000
 21
369.500001000000
  0
LINE
  5
29F
100
AcDbEntity
  8
0
100
AcDbLine
 62
     3
  6
CONTINUOUS
 10
556.880000000000
 20
335.500001000000
 11
558.880000000000
 21
335.500001000000
  0
LINE
  5
2A0
100
AcDbEntity
  8
0
100
AcDbLine
 62
     3
  6
CONTINUOUS
 10
558.880000000000
 20
335.500001000000
 11
558.880000000000
 21
369.500001000000
  0
LINE
  5
2A1
100
AcDbEntity
  8
0
100
AcDbLine
 62
     3
  6
CONTINUOUS
 10
552.900000000000
 20
335.500001000000
 11
552.900000000000
 21
369.500001000000
  0
LINE
  5
2A2
100
AcDbEntity
  8
0
100
AcDbLine
 62
     3
  6
CONTINUOUS
 10
552.900000000000
 20
335.500001000000
 11
554.900000000000
 21
335.500001000000
  0
LINE
  5
2A3
100
AcDbEntity
  8
0
100
AcDbLine
 62
     3
  6
CONTINUOUS
 10
554.900000000000
 20
335.500001000000
 11
554.900000000000
 21
369.500001000000
  0
LINE
  5
2A4
100
AcDbEntity
  8
0
100
AcDbLine
 62
     3
  6
CONTINUOUS
 10
548.920000000000
 20
335.500001000000
 11
548.920000000000
 21
369.500001000000
  0
LINE
  5
2A5
100
AcDbEntity
  8
0
100
AcDbLine
 62
     3
  6
CONTINUOUS
 10
548.920000000000
 20
335.500001000000
 11
550.920000000000
 21
335.500001000000
  0
LINE
  5
2A6
100
AcDbEntity
  8
0
100
AcDbLine
 62
     3
  6
CONTINUOUS
 10
550.920000000000
 20
335.500001000000
 11
550.920000000000
 21
369.500001000000
  0
LINE
  5
2A7
100
AcDbEntity
  8
0
100
AcDbLine
 62
     3
  6
CONTINUOUS
 10
544.940000000000
 20
335.500001000000
 11
544.940000000000
 21
369.500001000000
  0
LINE
  5
2A8
100
AcDbEntity
  8
0
100
AcDbLine
 62
     3
  6
CONTINUOUS
 10
544.940000000000
 20
335.500001000000
 11
546.940000000000
 21
335.500001000000
  0
LINE
  5
2A9
100
AcDbEntity
  8
0
100
AcDbLine
 62
     3
  6
CONTINUOUS
 10
546.940000000000
 20
335.500001000000
 11
546.940000000000
 21
369.500001000000
  0
LINE
  5
2AA
100
AcDbEntity
  8
0
100
AcDbLine
 62
     3
  6
CONTINUOUS
 10
540.960000000000
 20
335.500001000000
 11
540.960000000000
 21
369.500001000000
  0
LINE
  5
2AB
100
AcDbEntity
  8
0
100
AcDbLine
 62
     3
  6
CONTINUOUS
 10
540.960000000000
 20
335.500001000000
 11
542.960000000000
 21
335.500001000000
  0
LINE
  5
2AC
100
AcDbEntity
  8
0
100
AcDbLine
 62
     3
  6
CONTINUOUS
 10
542.960000000000
 20
335.500001000000
 11
542.960000000000
 21
369.500001000000
  0
LINE
  5
2AD
100
AcDbEntity
  8
0
100
AcDbLine
 62
     3
  6
CONTINUOUS
 10
536.980000000000
 20
335.500001000000
 11
536.980000000000
 21
369.500001000000
  0
LINE
  5
2AE
100
AcDbEntity
  8
0
100
AcDbLine
 62
     3
  6
CONTINUOUS
 10
536.980000000000
 20
335.500001000000
 11
538.980000000000
 21
335.500001000000
  0
LINE
  5
2AF
100
AcDbEntity
  8
0
100
AcDbLine
 62
     3
  6
CONTINUOUS
 10
538.980000000000
 20
335.500001000000
 11
538.980000000000
 21
369.500001000000
  0
LINE
  5
2B0
100
AcDbEntity
  8
0
100
AcDbLine
 62
     3
  6
CONTINUOUS
 10
533.000000000000
 20
335.500001000000
 11
533.000000000000
 21
369.500001000000
  0
LINE
  5
2B1
100
AcDbEntity
  8
0
100
AcDbLine
 62
     3
  6
CONTINUOUS
 10
533.000000000000
 20
335.500001000000
 11
535.000000000000
 21
335.500001000000
  0
LINE
  5
2B2
100
AcDbEntity
  8
0
100
AcDbLine
 62
     3
  6
CONTINUOUS
 10
535.000000000000
 20
335.500001000000
 11
535.000000000000
 21
369.500001000000
  0
LINE
  5
2B3
100
AcDbEntity
  8
0
100
AcDbLine
 62
     3
  6
CONTINUOUS
 10
529.020000000000
 20
335.500001000000
 11
529.020000000000
 21
369.500001000000
  0
LINE
  5
2B4
100
AcDbEntity
  8
0
100
AcDbLine
 62
     3
  6
CONTINUOUS
 10
529.020000000000
 20
335.500001000000
 11
531.020000000000
 21
335.500001000000
  0
LINE
  5
2B5
100
AcDbEntity
  8
0
100
AcDbLine
 62
     3
  6
CONTINUOUS
 10
531.020000000000
 20
335.500001000000
 11
531.020000000000
 21
369.500001000000
  0
LINE
  5
2B6
100
AcDbEntity
  8
0
100
AcDbLine
 62
     3
  6
CONTINUOUS
 10
525.040000000000
 20
335.500001000000
 11
525.040000000000
 21
369.500001000000
  0
LINE
  5
2B7
100
AcDbEntity
  8
0
100
AcDbLine
 62
     3
  6
CONTINUOUS
 10
525.040000000000
 20
335.500001000000
 11
527.040000000000
 21
335.500001000000
  0
LINE
  5
2B8
100
AcDbEntity
  8
0
100
AcDbLine
 62
     3
  6
CONTINUOUS
 10
527.040000000000
 20
335.500001000000
 11
527.040000000000
 21
369.500001000000
  0
LINE
  5
2B9
100
AcDbEntity
  8
0
100
AcDbLine
 62
     3
  6
CONTINUOUS
 10
521.060000000000
 20
335.500001000000
 11
521.060000000000
 21
369.500001000000
  0
LINE
  5
2BA
100
AcDbEntity
  8
0
100
AcDbLine
 62
     3
  6
CONTINUOUS
 10
521.060000000000
 20
335.500001000000
 11
523.060000000000
 21
335.500001000000
  0
LINE
  5
2BB
100
AcDbEntity
  8
0
100
AcDbLine
 62
     3
  6
CONTINUOUS
 10
523.060000000000
 20
335.500001000000
 11
523.060000000000
 21
369.500001000000
  0
LINE
  5
2BC
100
AcDbEntity
  8
0
100
AcDbLine
 62
     3
  6
CONTINUOUS
 10
517.080000000000
 20
335.500001000000
 11
517.080000000000
 21
369.500001000000
  0
LINE
  5
2BD
100
AcDbEntity
  8
0
100
AcDbLine
 62
     3
  6
CONTINUOUS
 10
517.080000000000
 20
335.500001000000
 11
519.080000000000
 21
335.500001000000
  0
LINE
  5
2BE
100
AcDbEntity
  8
0
100
AcDbLine
 62
     3
  6
CONTINUOUS
 10
519.080000000000
 20
335.500001000000
 11
519.080000000000
 21
369.500001000000
  0
LINE
  5
2BF
100
AcDbEntity
  8
0
100
AcDbLine
 62
     3
  6
CONTINUOUS
 10
513.100000000000
 20
335.500001000000
 11
513.100000000000
 21
369.500001000000
  0
LINE
  5
2C0
100
AcDbEntity
  8
0
100
AcDbLine
 62
     3
  6
CONTINUOUS
 10
513.100000000000
 20
335.500001000000
 11
515.100000000000
 21
335.500001000000
  0
LINE
  5
2C1
100
AcDbEntity
  8
0
100
AcDbLine
 62
     3
  6
CONTINUOUS
 10
515.100000000000
 20
335.500001000000
 11
515.100000000000
 21
369.500001000000
  0
LINE
  5
2C2
100
AcDbEntity
  8
0
100
AcDbLine
 62
     3
  6
CONTINUOUS
 10
509.120000000000
 20
335.500001000000
 11
509.120000000000
 21
369.500001000000
  0
LINE
  5
2C3
100
AcDbEntity
  8
0
100
AcDbLine
 62
     3
  6
CONTINUOUS
 10
509.120000000000
 20
335.500001000000
 11
511.120000000000
 21
335.500001000000
  0
LINE
  5
2C4
100
AcDbEntity
  8
0
100
AcDbLine
 62
     3
  6
CONTINUOUS
 10
511.120000000000
 20
335.500001000000
 11
511.120000000000
 21
369.500001000000
  0
LINE
  5
2C5
100
AcDbEntity
  8
0
100
AcDbLine
 62
     3
  6
CONTINUOUS
 10
505.140000000000
 20
335.500001000000
 11
505.140000000000
 21
369.500001000000
  0
LINE
  5
2C6
100
AcDbEntity
  8
0
100
AcDbLine
 62
     3
  6
CONTINUOUS
 10
505.140000000000
 20
335.500001000000
 11
507.140000000000
 21
335.500001000000
  0
LINE
  5
2C7
100
AcDbEntity
  8
0
100
AcDbLine
 62
     3
  6
CONTINUOUS
 10
507.140000000000
 20
335.500001000000
 11
507.140000000000
 21
369.500001000000
  0
LINE
  5
2C8
100
AcDbEntity
  8
0
100
AcDbLine
 62
     3
  6
CONTINUOUS
 10
501.160000000000
 20
335.500001000000
 11
501.160000000000
 21
369.500001000000
  0
LINE
  5
2C9
100
AcDbEntity
  8
0
100
AcDbLine
 62
     3
  6
CONTINUOUS
 10
501.160000000000
 20
335.500001000000
 11
503.160000000000
 21
335.500001000000
  0
LINE
  5
2CA
100
AcDbEntity
  8
0
100
AcDbLine
 62
     3
  6
CONTINUOUS
 10
503.160000000000
 20
335.500001000000
 11
503.160000000000
 21
369.500001000000
  0
LINE
  5
2CB
100
AcDbEntity
  8
0
100
AcDbLine
 62
     3
  6
CONTINUOUS
 10
497.180000000000
 20
335.500001000000
 11
497.180000000000
 21
369.500001000000
  0
LINE
  5
2CC
100
AcDbEntity
  8
0
100
AcDbLine
 62
     3
  6
CONTINUOUS
 10
497.180000000000
 20
335.500001000000
 11
499.180000000000
 21
335.500001000000
  0
LINE
  5
2CD
100
AcDbEntity
  8
0
100
AcDbLine
 62
     3
  6
CONTINUOUS
 10
499.180000000000
 20
335.500001000000
 11
499.180000000000
 21
369.500001000000
  0
LINE
  5
2CE
100
AcDbEntity
  8
0
100
AcDbLine
 62
     3
  6
CONTINUOUS
 10
493.200000000000
 20
335.500001000000
 11
493.200000000000
 21
369.500001000000
  0
LINE
  5
2CF
100
AcDbEntity
  8
0
100
AcDbLine
 62
     3
  6
CONTINUOUS
 10
493.200000000000
 20
335.500001000000
 11
495.200000000000
 21
335.500001000000
  0
LINE
  5
2D0
100
AcDbEntity
  8
0
100
AcDbLine
 62
     3
  6
CONTINUOUS
 10
495.200000000000
 20
335.500001000000
 11
495.200000000000
 21
369.500001000000
  0
LINE
  5
2D1
100
AcDbEntity
  8
0
100
AcDbLine
 62
     3
  6
CONTINUOUS
 10
489.220000000000
 20
335.500001000000
 11
489.220000000000
 21
369.500001000000
  0
LINE
  5
2D2
100
AcDbEntity
  8
0
100
AcDbLine
 62
     3
  6
CONTINUOUS
 10
489.220000000000
 20
335.500001000000
 11
491.220000000000
 21
335.500001000000
  0
LINE
  5
2D3
100
AcDbEntity
  8
0
100
AcDbLine
 62
     3
  6
CONTINUOUS
 10
491.220000000000
 20
335.500001000000
 11
491.220000000000
 21
369.500001000000
  0
LINE
  5
2D4
100
AcDbEntity
  8
0
100
AcDbLine
 62
     3
  6
CONTINUOUS
 10
485.240000000000
 20
335.500001000000
 11
485.240000000000
 21
369.500001000000
  0
LINE
  5
2D5
100
AcDbEntity
  8
0
100
AcDbLine
 62
     3
  6
CONTINUOUS
 10
485.240000000000
 20
335.500001000000
 11
487.240000000000
 21
335.500001000000
  0
LINE
  5
2D6
100
AcDbEntity
  8
0
100
AcDbLine
 62
     3
  6
CONTINUOUS
 10
487.240000000000
 20
335.500001000000
 11
487.240000000000
 21
369.500001000000
  0
LINE
  5
2D7
100
AcDbEntity
  8
0
100
AcDbLine
 62
     0
  6
CENTER2
 48
10.0
 10
515.250000000000
 20
493.816030323505
 11
515.250000000000
 21
443.961299985647
  0
LINE
  5
2D8
100
AcDbEntity
  8
0
100
AcDbLine
 62
     3
  6
CONTINUOUS
 10
514.660000000000
 20
485.500001000000
 11
515.840000000000
 21
485.500001000000
  0
LINE
  5
2D9
100
AcDbEntity
  8
0
100
AcDbLine
 62
     0
  6
CENTER2
 48
10.0
 10
552.750000000000
 20
493.816030323505
 11
552.750000000000
 21
443.961299985647
  0
LINE
  5
2DA
100
AcDbEntity
  8
0
100
AcDbLine
 62
     3
  6
CONTINUOUS
 10
551.865000000000
 20
458.500001000000
 11
553.635000000000
 21
458.500001000000
  0
LINE
  5
2DB
100
AcDbEntity
  8
0
100
AcDbLine
 62
     3
  6
CONTINUOUS
 10
552.265000000000
 20
453.500001000000
 11
553.235000000000
 21
453.500001000000
  0
LINE
  5
2DC
100
AcDbEntity
  8
0
100
AcDbLine
 62
     3
  6
CONTINUOUS
 10
552.160000000000
 20
485.500001000000
 11
553.340000000000
 21
485.500001000000
  0
LINE
  5
2DD
100
AcDbEntity
  8
0
100
AcDbLine
 62
     3
  6
CONTINUOUS
 10
550.750000000000
 20
375.500001000000
 11
550.750000000000
 21
377.500001000000
  0
LINE
  5
2DE
100
AcDbEntity
  8
0
100
AcDbLine
 62
     3
  6
CONTINUOUS
 10
554.750000000000
 20
375.500001000000
 11
554.750000000000
 21
377.500001000000
  0
ARC
  5
2DF
100
AcDbEntity
  8
0
100
AcDbCircle
 62
     3
  6
CONTINUOUS
 10
552.750000000000
 20
377.500001000000
 40
2.000000000000
100
AcDbArc
 50
0.000000000000
 51
179.999999990317
  0
LINE
  5
2E0
100
AcDbEntity
  8
0
100
AcDbLine
 62
     3
  6
CONTINUOUS
 10
513.250000000000
 20
375.500001000000
 11
513.250000000000
 21
377.500001000000
  0
LINE
  5
2E1
100
AcDbEntity
  8
0
100
AcDbLine
 62
     3
  6
CONTINUOUS
 10
517.250000000000
 20
375.500001000000
 11
517.250000000000
 21
377.500001000000
  0
ARC
  5
2E2
100
AcDbEntity
  8
0
100
AcDbCircle
 62
     3
  6
CONTINUOUS
 10
515.250000000000
 20
377.500001000000
 40
2.000000000000
100
AcDbArc
 50
0.000000000000
 51
179.999999990317
  0
LINE
  5
2E3
100
AcDbEntity
  8
0
100
AcDbLine
 62
     0
  6
CENTER2
 48
10.0
 10
588.403083622456
 20
525.500001000000
 11
480.631194353104
 21
525.500001000000
  0
LINE
  5
2E4
100
AcDbEntity
  8
0
100
AcDbLine
 62
     0
  6
CENTER2
 48
10.0
 10
492.750000000000
 20
561.750001000000
 11
492.750000000000
 21
571.750001000000
  0
LINE
  5
2E5
100
AcDbEntity
  8
0
100
AcDbLine
 62
     0
  6
CENTER2
 48
10.0
 10
497.750000000000
 20
566.750001000000
 11
487.750000000000
 21
566.750001000000
  0
CIRCLE
  5
2E6
100
AcDbEntity
  8
0
100
AcDbCircle
 62
     3
  6
CONTINUOUS
 10
492.750000000000
 20
566.750001000000
 40
1.250000000000
  0
CIRCLE
  5
2E7
100
AcDbEntity
  8
0
100
AcDbCircle
 62
     3
  6
CONTINUOUS
 10
492.750000000000
 20
566.750001000000
 40
1.700000000000
  0
CIRCLE
  5
2E8
100
AcDbEntity
  8
0
100
AcDbCircle
 62
     3
  6
CONTINUOUS
 10
492.750000000000
 20
484.250001000000
 40
1.700000000000
  0
CIRCLE
  5
2E9
100
AcDbEntity
  8
0
100
AcDbCircle
 62
     3
  6
CONTINUOUS
 10
492.750000000000
 20
484.250001000000
 40
1.250000000000
  0
LINE
  5
2EA
100
AcDbEntity
  8
0
100
AcDbLine
 62
     0
  6
CENTER2
 48
10.0
 10
492.750000000000
 20
479.250001000000
 11
492.750000000000
 21
489.250001000000
  0
LINE
  5
2EB
100
AcDbEntity
  8
0
100
AcDbLine
 62
     0
  6
CENTER2
 48
10.0
 10
497.750000000000
 20
484.250001000000
 11
487.750000000000
 21
484.250001000000
  0
CIRCLE
  5
2EC
100
AcDbEntity
  8
0
100
AcDbCircle
 62
     3
  6
CONTINUOUS
 10
575.250000000000
 20
484.250001000000
 40
1.700000000000
  0
CIRCLE
  5
2ED
100
AcDbEntity
  8
0
100
AcDbCircle
 62
     3
  6
CONTINUOUS
 10
575.250000000000
 20
484.250001000000
 40
1.250000000000
  0
LINE
  5
2EE
100
AcDbEntity
  8
0
100
AcDbLine
 62
     0
  6
CENTER2
 48
10.0
 10
575.250000000000
 20
479.250001000000
 11
575.250000000000
 21
489.250001000000
  0
LINE
  5
2EF
100
AcDbEntity
  8
0
100
AcDbLine
 62
     0
  6
CENTER2
 48
10.0
 10
580.250000000000
 20
484.250001000000
 11
570.250000000000
 21
484.250001000000
  0
CIRCLE
  5
2F0
100
AcDbEntity
  8
0
100
AcDbCircle
 62
     3
  6
CONTINUOUS
 10
575.250000000000
 20
566.750001000000
 40
1.700000000000
  0
CIRCLE
  5
2F1
100
AcDbEntity
  8
0
100
AcDbCircle
 62
     3
  6
CONTINUOUS
 10
575.250000000000
 20
566.750001000000
 40
1.250000000000
  0
LINE
  5
2F2
100
AcDbEntity
  8
0
100
AcDbLine
 62
     0
  6
CENTER2
 48
10.0
 10
575.250000000000
 20
561.750001000000
 11
575.250000000000
 21
571.750001000000
  0
LINE
  5
2F3
100
AcDbEntity
  8
0
100
AcDbLine
 62
     0
  6
CENTER2
 48
10.0
 10
580.250000000000
 20
566.750001000000
 11
570.250000000000
 21
566.750001000000
  0
LINE
  5
2F4
100
AcDbEntity
  8
0
100
AcDbLine
 62
     3
  6
CONTINUOUS
 10
551.864999999647
 20
469.625319083765
 11
551.865000000000
 21
458.500001000000
  0
LINE
  5
2F5
100
AcDbEntity
  8
0
100
AcDbLine
 62
     3
  6
CONTINUOUS
 10
551.864999998541
 20
471.125319084613
 11
551.865000000000
 21
485.500001000000
  0
LINE
  5
2F6
100
AcDbEntity
  8
0
100
AcDbLine
 62
     3
  6
CONTINUOUS
 10
553.634999999388
 20
468.155492647007
 11
553.635000000000
 21
458.500001000000
  0
LINE
  5
2F7
100
AcDbEntity
  8
0
100
AcDbLine
 62
     3
  6
CONTINUOUS
 10
553.634999999388
 20
469.655492647007
 11
553.635000000000
 21
485.500001000000
  0
LINE
  5
2F8
100
AcDbEntity
  8
0
100
AcDbLine
 62
     3
  6
CONTINUOUS
 10
552.265000000000
 20
458.500001000000
 11
552.265000000000
 21
453.500001000000
  0
LINE
  5
2F9
100
AcDbEntity
  8
0
100
AcDbLine
 62
     3
  6
CONTINUOUS
 10
553.235000000000
 20
458.500001000000
 11
553.235000000000
 21
453.500001000000
  0
LINE
  5
2FA
100
AcDbEntity
  8
0
100
AcDbLine
 62
     3
  6
CONTINUOUS
 10
516.134999999389
 20
469.655492647007
 11
516.135000000000
 21
485.500001000000
  0
LINE
  5
2FB
100
AcDbEntity
  8
0
100
AcDbLine
 62
     3
  6
CONTINUOUS
 10
514.364999998541
 20
471.125319084613
 11
514.365000000000
 21
485.500001000000
  0
LINE
  5
2FC
100
AcDbEntity
  8
0
100
AcDbLine
 62
     3
  6
CONTINUOUS
 10
515.735000000000
 20
458.500001000000
 11
515.735000000000
 21
453.500001000000
  0
LINE
  5
2FD
100
AcDbEntity
  8
0
100
AcDbLine
 62
     3
  6
CONTINUOUS
 10
514.765000000000
 20
458.500001000000
 11
514.765000000000
 21
453.500001000000
  0
LINE
  5
2FE
100
AcDbEntity
  8
0
100
AcDbLine
 62
     3
  6
CONTINUOUS
 10
516.134999999389
 20
468.155492647007
 11
516.135000000000
 21
458.500001000000
  0
LINE
  5
2FF
100
AcDbEntity
  8
0
100
AcDbLine
 62
     3
  6
CONTINUOUS
 10
514.364999999647
 20
469.625319083765
 11
514.365000000000
 21
458.500001000000
  0
LINE
  5
300
100
AcDbEntity
  8
0
100
AcDbLine
 62
     3
  6
CONTINUOUS
 10
514.765000000000
 20
453.500001000000
 11
515.735000000000
 21
453.500001000000
  0
LINE
  5
301
100
AcDbEntity
  8
0
100
AcDbLine
 62
     3
  6
CONTINUOUS
 10
514.365000000000
 20
458.500001000000
 11
516.135000000000
 21
458.500001000000
  0
ARC
  5
302
100
AcDbEntity
  8
0
100
AcDbCircle
 62
     3
  6
CONTINUOUS
 10
534.000000000000
 20
384.000001000000
 40
1.300000000000
100
AcDbArc
 50
179.999999990316
 51
359.999999980633
  0
LINE
  5
303
100
AcDbEntity
  8
0
100
AcDbLine
 62
     0
  6
CENTER2
 48
10.0
 10
529.000000000000
 20
384.200001000000
 11
539.000000000000
 21
384.200001000000
  0
CIRCLE
  5
304
100
AcDbEntity
  8
0
100
AcDbCircle
 62
     3
  6
CONTINUOUS
 10
534.000000000000
 20
384.200001000000
 40
1.300000000000
  0
LINE
  5
305
100
AcDbEntity
  8
0
100
AcDbLine
 62
     3
  6
CONTINUOUS
 10
535.300000000000
 20
497.000001000000
 11
535.300000000000
 21
485.500001000000
  0
LINE
  5
306
100
AcDbEntity
  8
0
100
AcDbLine
 62
     3
  6
HIDDEN
 48
10.0
 10
535.300000000000
 20
523.000001000000
 11
535.300000000000
 21
498.000001000000
  0
LINE
  5
307
100
AcDbEntity
  8
0
100
AcDbLine
 62
     3
  6
CONTINUOUS
 10
532.700000000000
 20
497.000001000000
 11
532.700000000000
 21
485.500001000000
  0
LINE
  5
308
100
AcDbEntity
  8
0
100
AcDbLine
 62
     3
  6
HIDDEN
 48
10.0
 10
532.700000000000
 20
523.000001000000
 11
532.700000000000
 21
498.000001000000
  0
LINE
  5
309
100
AcDbEntity
  8
0
100
AcDbLine
 62
     3
  6
HIDDEN
 48
10.0
 10
535.300000000000
 20
523.000001000000
 11
532.700000000000
 21
523.000001000000
  0
ARC
  5
30A
100
AcDbEntity
  8
0
100
AcDbCircle
 62
     3
  6
CONTINUOUS
 10
507.500000000000
 20
552.000001000000
 40
2.000000000000
100
AcDbArc
 50
89.999999995158
 51
179.999999990317
  0
LINE
  5
30B
100
AcDbEntity
  8
0
100
AcDbLine
 62
     3
  6
CONTINUOUS
 10
560.500000000000
 20
554.000001000000
 11
507.500000000000
 21
554.000001000000
  0
ARC
  5
30C
100
AcDbEntity
  8
0
100
AcDbCircle
 62
     3
  6
CONTINUOUS
 10
507.500000000000
 20
499.000001000000
 40
2.000000000000
100
AcDbArc
 50
179.999999990317
 51
269.999999985475
  0
LINE
  5
30D
100
AcDbEntity
  8
0
100
AcDbLine
 62
     3
  6
CONTINUOUS
 10
505.500000000000
 20
499.000001000000
 11
505.500000000000
 21
552.000001000000
  0
ARC
  5
30E
100
AcDbEntity
  8
0
100
AcDbCircle
 62
     3
  6
CONTINUOUS
 10
560.500000000000
 20
552.000001000000
 40
2.000000000000
100
AcDbArc
 50
0.000000000000
 51
89.999999995158
  0
LINE
  5
30F
100
AcDbEntity
  8
0
100
AcDbLine
 62
     3
  6
CONTINUOUS
 10
562.500000000000
 20
552.000001000000
 11
562.500000000000
 21
499.000001000000
  0
ARC
  5
310
100
AcDbEntity
  8
0
100
AcDbCircle
 62
     3
  6
CONTINUOUS
 10
560.500000000000
 20
499.000001000000
 40
2.000000000000
100
AcDbArc
 50
269.999999985475
 51
359.999999980633
  0
LINE
  5
311
100
AcDbEntity
  8
0
100
AcDbLine
 62
     3
  6
CONTINUOUS
 10
560.500000000000
 20
497.000001000000
 11
507.500000000000
 21
497.000001000000
  0
LINE
  5
312
100
AcDbEntity
  8
0
100
AcDbLine
 62
     3
  6
CONTINUOUS
 10
750.760000000000
 20
335.500001000000
 11
752.760000000000
 21
335.500001000000
  0
LINE
  5
313
100
AcDbEntity
  8
0
100
AcDbLine
 62
     3
  6
CONTINUOUS
 10
746.780000000000
 20
335.500001000000
 11
746.780000000000
 21
369.500001000000
  0
LINE
  5
314
100
AcDbEntity
  8
0
100
AcDbLine
 62
     3
  6
CONTINUOUS
 10
746.780000000000
 20
335.500001000000
 11
748.780000000000
 21
335.500001000000
  0
LINE
  5
315
100
AcDbEntity
  8
0
100
AcDbLine
 62
     3
  6
CONTINUOUS
 10
748.780000000000
 20
335.500001000000
 11
748.780000000000
 21
369.500001000000
  0
LINE
  5
316
100
AcDbEntity
  8
0
100
AcDbLine
 62
     3
  6
CONTINUOUS
 10
742.800000000000
 20
335.500001000000
 11
742.800000000000
 21
369.500001000000
  0
LINE
  5
317
100
AcDbEntity
  8
0
100
AcDbLine
 62
     3
  6
CONTINUOUS
 10
742.800000000000
 20
335.500001000000
 11
744.800000000000
 21
335.500001000000
  0
LINE
  5
318
100
AcDbEntity
  8
0
100
AcDbLine
 62
     3
  6
CONTINUOUS
 10
744.800000000000
 20
335.500001000000
 11
744.800000000000
 21
369.500001000000
  0
LINE
  5
319
100
AcDbEntity
  8
0
100
AcDbLine
 62
     3
  6
CONTINUOUS
 10
738.820000000000
 20
335.500001000000
 11
738.820000000000
 21
369.500001000000
  0
LINE
  5
31A
100
AcDbEntity
  8
0
100
AcDbLine
 62
     3
  6
CONTINUOUS
 10
738.820000000000
 20
335.500001000000
 11
740.820000000000
 21
335.500001000000
  0
LINE
  5
31B
100
AcDbEntity
  8
0
100
AcDbLine
 62
     3
  6
CONTINUOUS
 10
740.820000000000
 20
335.500001000000
 11
740.820000000000
 21
369.500001000000
  0
LINE
  5
31C
100
AcDbEntity
  8
0
100
AcDbLine
 62
     3
  6
CONTINUOUS
 10
734.840000000000
 20
335.500001000000
 11
734.840000000000
 21
369.500001000000
  0
LINE
  5
31D
100
AcDbEntity
  8
0
100
AcDbLine
 62
     3
  6
CONTINUOUS
 10
734.840000000000
 20
335.500001000000
 11
736.840000000000
 21
335.500001000000
  0
LINE
  5
31E
100
AcDbEntity
  8
0
100
AcDbLine
 62
     3
  6
CONTINUOUS
 10
736.840000000000
 20
335.500001000000
 11
736.840000000000
 21
369.500001000000
  0
LINE
  5
31F
100
AcDbEntity
  8
0
100
AcDbLine
 62
     3
  6
CONTINUOUS
 10
730.860000000000
 20
335.500001000000
 11
730.860000000000
 21
369.500001000000
  0
LINE
  5
320
100
AcDbEntity
  8
0
100
AcDbLine
 62
     3
  6
CONTINUOUS
 10
730.860000000000
 20
335.500001000000
 11
732.860000000000
 21
335.500001000000
  0
LINE
  5
321
100
AcDbEntity
  8
0
100
AcDbLine
 62
     3
  6
CONTINUOUS
 10
732.860000000000
 20
335.500001000000
 11
732.860000000000
 21
369.500001000000
  0
LINE
  5
322
100
AcDbEntity
  8
0
100
AcDbLine
 62
     3
  6
CONTINUOUS
 10
726.880000000000
 20
335.500001000000
 11
726.880000000000
 21
369.500001000000
  0
LINE
  5
323
100
AcDbEntity
  8
0
100
AcDbLine
 62
     3
  6
CONTINUOUS
 10
726.880000000000
 20
335.500001000000
 11
728.880000000000
 21
335.500001000000
  0
LINE
  5
324
100
AcDbEntity
  8
0
100
AcDbLine
 62
     3
  6
CONTINUOUS
 10
728.880000000000
 20
335.500001000000
 11
728.880000000000
 21
369.500001000000
  0
LINE
  5
325
100
AcDbEntity
  8
0
100
AcDbLine
 62
     3
  6
CONTINUOUS
 10
722.900000000000
 20
335.500001000000
 11
722.900000000000
 21
369.500001000000
  0
LINE
  5
326
100
AcDbEntity
  8
0
100
AcDbLine
 62
     3
  6
CONTINUOUS
 10
722.900000000000
 20
335.500001000000
 11
724.900000000000
 21
335.500001000000
  0
LINE
  5
327
100
AcDbEntity
  8
0
100
AcDbLine
 62
     3
  6
CONTINUOUS
 10
724.900000000000
 20
335.500001000000
 11
724.900000000000
 21
369.500001000000
  0
LINE
  5
328
100
AcDbEntity
  8
0
100
AcDbLine
 62
     3
  6
CONTINUOUS
 10
718.920000000000
 20
335.500001000000
 11
718.920000000000
 21
369.500001000000
  0
LINE
  5
329
100
AcDbEntity
  8
0
100
AcDbLine
 62
     3
  6
CONTINUOUS
 10
718.920000000000
 20
335.500001000000
 11
720.920000000000
 21
335.500001000000
  0
LINE
  5
32A
100
AcDbEntity
  8
0
100
AcDbLine
 62
     3
  6
CONTINUOUS
 10
720.920000000000
 20
335.500001000000
 11
720.920000000000
 21
369.500001000000
  0
LINE
  5
32B
100
AcDbEntity
  8
0
100
AcDbLine
 62
     3
  6
CONTINUOUS
 10
714.940000000000
 20
335.500001000000
 11
714.940000000000
 21
369.500001000000
  0
LINE
  5
32C
100
AcDbEntity
  8
0
100
AcDbLine
 62
     3
  6
CONTINUOUS
 10
714.940000000000
 20
335.500001000000
 11
716.940000000000
 21
335.500001000000
  0
LINE
  5
32D
100
AcDbEntity
  8
0
100
AcDbLine
 62
     3
  6
CONTINUOUS
 10
716.940000000000
 20
335.500001000000
 11
716.940000000000
 21
369.500001000000
  0
LINE
  5
32E
100
AcDbEntity
  8
0
100
AcDbLine
 62
     3
  6
CONTINUOUS
 10
710.960000000000
 20
335.500001000000
 11
710.960000000000
 21
369.500001000000
  0
LINE
  5
32F
100
AcDbEntity
  8
0
100
AcDbLine
 62
     3
  6
CONTINUOUS
 10
710.960000000000
 20
335.500001000000
 11
712.960000000000
 21
335.500001000000
  0
LINE
  5
330
100
AcDbEntity
  8
0
100
AcDbLine
 62
     3
  6
CONTINUOUS
 10
712.960000000000
 20
335.500001000000
 11
712.960000000000
 21
369.500001000000
  0
LINE
  5
331
100
AcDbEntity
  8
0
100
AcDbLine
 62
     3
  6
CONTINUOUS
 10
706.980000000000
 20
335.500001000000
 11
706.980000000000
 21
369.500001000000
  0
LINE
  5
332
100
AcDbEntity
  8
0
100
AcDbLine
 62
     3
  6
CONTINUOUS
 10
706.980000000000
 20
335.500001000000
 11
708.980000000000
 21
335.500001000000
  0
LINE
  5
333
100
AcDbEntity
  8
0
100
AcDbLine
 62
     3
  6
CONTINUOUS
 10
708.980000000000
 20
335.500001000000
 11
708.980000000000
 21
369.500001000000
  0
LINE
  5
334
100
AcDbEntity
  8
0
100
AcDbLine
 62
     3
  6
CONTINUOUS
 10
703.000000000000
 20
335.500001000000
 11
703.000000000000
 21
369.500001000000
  0
LINE
  5
335
100
AcDbEntity
  8
0
100
AcDbLine
 62
     3
  6
CONTINUOUS
 10
703.000000000000
 20
335.500001000000
 11
705.000000000000
 21
335.500001000000
  0
LINE
  5
336
100
AcDbEntity
  8
0
100
AcDbLine
 62
     3
  6
CONTINUOUS
 10
705.000000000000
 20
335.500001000000
 11
705.000000000000
 21
369.500001000000
  0
LINE
  5
337
100
AcDbEntity
  8
0
100
AcDbLine
 62
     3
  6
CONTINUOUS
 10
699.020000000000
 20
335.500001000000
 11
699.020000000000
 21
369.500001000000
  0
LINE
  5
338
100
AcDbEntity
  8
0
100
AcDbLine
 62
     3
  6
CONTINUOUS
 10
699.020000000000
 20
335.500001000000
 11
701.020000000000
 21
335.500001000000
  0
LINE
  5
339
100
AcDbEntity
  8
0
100
AcDbLine
 62
     3
  6
CONTINUOUS
 10
701.020000000000
 20
335.500001000000
 11
701.020000000000
 21
369.500001000000
  0
LINE
  5
33A
100
AcDbEntity
  8
0
100
AcDbLine
 62
     3
  6
CONTINUOUS
 10
695.040000000000
 20
335.500001000000
 11
695.040000000000
 21
369.500001000000
  0
LINE
  5
33B
100
AcDbEntity
  8
0
100
AcDbLine
 62
     3
  6
CONTINUOUS
 10
695.040000000000
 20
335.500001000000
 11
697.040000000000
 21
335.500001000000
  0
LINE
  5
33C
100
AcDbEntity
  8
0
100
AcDbLine
 62
     3
  6
CONTINUOUS
 10
697.040000000000
 20
335.500001000000
 11
697.040000000000
 21
369.500001000000
  0
LINE
  5
33D
100
AcDbEntity
  8
0
100
AcDbLine
 62
     3
  6
CONTINUOUS
 10
691.060000000000
 20
335.500001000000
 11
691.060000000000
 21
369.500001000000
  0
LINE
  5
33E
100
AcDbEntity
  8
0
100
AcDbLine
 62
     3
  6
CONTINUOUS
 10
691.060000000000
 20
335.500001000000
 11
693.060000000000
 21
335.500001000000
  0
LINE
  5
33F
100
AcDbEntity
  8
0
100
AcDbLine
 62
     3
  6
CONTINUOUS
 10
693.060000000000
 20
335.500001000000
 11
693.060000000000
 21
369.500001000000
  0
LINE
  5
340
100
AcDbEntity
  8
0
100
AcDbLine
 62
     3
  6
CONTINUOUS
 10
687.080000000000
 20
335.500001000000
 11
687.080000000000
 21
369.500001000000
  0
LINE
  5
341
100
AcDbEntity
  8
0
100
AcDbLine
 62
     3
  6
CONTINUOUS
 10
687.080000000000
 20
335.500001000000
 11
689.080000000000
 21
335.500001000000
  0
LINE
  5
342
100
AcDbEntity
  8
0
100
AcDbLine
 62
     3
  6
CONTINUOUS
 10
689.080000000000
 20
335.500001000000
 11
689.080000000000
 21
369.500001000000
  0
LINE
  5
343
100
AcDbEntity
  8
0
100
AcDbLine
 62
     3
  6
CONTINUOUS
 10
683.100000000000
 20
335.500001000000
 11
683.100000000000
 21
369.500001000000
  0
LINE
  5
344
100
AcDbEntity
  8
0
100
AcDbLine
 62
     3
  6
CONTINUOUS
 10
683.100000000000
 20
335.500001000000
 11
685.100000000000
 21
335.500001000000
  0
LINE
  5
345
100
AcDbEntity
  8
0
100
AcDbLine
 62
     3
  6
CONTINUOUS
 10
685.100000000000
 20
335.500001000000
 11
685.100000000000
 21
369.500001000000
  0
LINE
  5
346
100
AcDbEntity
  8
0
100
AcDbLine
 62
     3
  6
CONTINUOUS
 10
679.120000000000
 20
335.500001000000
 11
679.120000000000
 21
369.500001000000
  0
LINE
  5
347
100
AcDbEntity
  8
0
100
AcDbLine
 62
     3
  6
CONTINUOUS
 10
679.120000000000
 20
335.500001000000
 11
681.120000000000
 21
335.500001000000
  0
LINE
  5
348
100
AcDbEntity
  8
0
100
AcDbLine
 62
     3
  6
CONTINUOUS
 10
681.120000000000
 20
335.500001000000
 11
681.120000000000
 21
369.500001000000
  0
LINE
  5
349
100
AcDbEntity
  8
0
100
AcDbLine
 62
     3
  6
CONTINUOUS
 10
675.140000000000
 20
335.500001000000
 11
675.140000000000
 21
369.500001000000
  0
LINE
  5
34A
100
AcDbEntity
  8
0
100
AcDbLine
 62
     3
  6
CONTINUOUS
 10
675.140000000000
 20
335.500001000000
 11
677.140000000000
 21
335.500001000000
  0
LINE
  5
34B
100
AcDbEntity
  8
0
100
AcDbLine
 62
     3
  6
CONTINUOUS
 10
677.140000000000
 20
335.500001000000
 11
677.140000000000
 21
369.500001000000
  0
LINE
  5
34C
100
AcDbEntity
  8
0
100
AcDbLine
 62
     3
  6
CONTINUOUS
 10
671.160000000000
 20
335.500001000000
 11
671.160000000000
 21
369.500001000000
  0
LINE
  5
34D
100
AcDbEntity
  8
0
100
AcDbLine
 62
     3
  6
CONTINUOUS
 10
671.160000000000
 20
335.500001000000
 11
673.160000000000
 21
335.500001000000
  0
LINE
  5
34E
100
AcDbEntity
  8
0
100
AcDbLine
 62
     3
  6
CONTINUOUS
 10
673.160000000000
 20
335.500001000000
 11
673.160000000000
 21
369.500001000000
  0
LINE
  5
34F
100
AcDbEntity
  8
0
100
AcDbLine
 62
     3
  6
CONTINUOUS
 10
667.180000000000
 20
335.500001000000
 11
667.180000000000
 21
369.500001000000
  0
LINE
  5
350
100
AcDbEntity
  8
0
100
AcDbLine
 62
     3
  6
CONTINUOUS
 10
667.180000000000
 20
335.500001000000
 11
669.180000000000
 21
335.500001000000
  0
LINE
  5
351
100
AcDbEntity
  8
0
100
AcDbLine
 62
     3
  6
CONTINUOUS
 10
669.180000000000
 20
335.500001000000
 11
669.180000000000
 21
369.500001000000
  0
LINE
  5
352
100
AcDbEntity
  8
0
100
AcDbLine
 62
     3
  6
CONTINUOUS
 10
663.200000000000
 20
335.500001000000
 11
663.200000000000
 21
369.500001000000
  0
LINE
  5
353
100
AcDbEntity
  8
0
100
AcDbLine
 62
     3
  6
CONTINUOUS
 10
663.200000000000
 20
335.500001000000
 11
665.200000000000
 21
335.500001000000
  0
LINE
  5
354
100
AcDbEntity
  8
0
100
AcDbLine
 62
     3
  6
CONTINUOUS
 10
665.200000000000
 20
335.500001000000
 11
665.200000000000
 21
369.500001000000
  0
LINE
  5
355
100
AcDbEntity
  8
0
100
AcDbLine
 62
     3
  6
CONTINUOUS
 10
659.220000000000
 20
335.500001000000
 11
659.220000000000
 21
369.500001000000
  0
LINE
  5
356
100
AcDbEntity
  8
0
100
AcDbLine
 62
     3
  6
CONTINUOUS
 10
659.220000000000
 20
335.500001000000
 11
661.220000000000
 21
335.500001000000
  0
LINE
  5
357
100
AcDbEntity
  8
0
100
AcDbLine
 62
     3
  6
CONTINUOUS
 10
661.220000000000
 20
335.500001000000
 11
661.220000000000
 21
369.500001000000
  0
LINE
  5
358
100
AcDbEntity
  8
0
100
AcDbLine
 62
     3
  6
CONTINUOUS
 10
655.240000000000
 20
335.500001000000
 11
655.240000000000
 21
369.500001000000
  0
LINE
  5
359
100
AcDbEntity
  8
0
100
AcDbLine
 62
     3
  6
CONTINUOUS
 10
655.240000000000
 20
335.500001000000
 11
657.240000000000
 21
335.500001000000
  0
LINE
  5
35A
100
AcDbEntity
  8
0
100
AcDbLine
 62
     3
  6
CONTINUOUS
 10
657.240000000000
 20
335.500001000000
 11
657.240000000000
 21
369.500001000000
  0
LINE
  5
35B
100
AcDbEntity
  8
0
100
AcDbLine
 62
     3
  6
CONTINUOUS
 10
676.500000000000
 20
375.500001000000
 11
731.500000000000
 21
375.500001000000
  0
LINE
  5
35C
100
AcDbEntity
  8
0
100
AcDbLine
 62
     3
  6
CONTINUOUS
 10
659.000000000000
 20
335.500001000000
 11
661.000000000000
 21
335.500001000000
  0
LINE
  5
35D
100
AcDbEntity
  8
0
100
AcDbLine
 62
     3
  6
CONTINUOUS
 10
663.000000000000
 20
335.500001000000
 11
665.000000000000
 21
335.500001000000
  0
LINE
  5
35E
100
AcDbEntity
  8
0
100
AcDbLine
 62
     3
  6
CONTINUOUS
 10
667.000000000000
 20
335.500001000000
 11
669.000000000000
 21
335.500001000000
  0
LINE
  5
35F
100
AcDbEntity
  8
0
100
AcDbLine
 62
     3
  6
CONTINUOUS
 10
671.000000000000
 20
335.500001000000
 11
673.000000000000
 21
335.500001000000
  0
LINE
  5
360
100
AcDbEntity
  8
0
100
AcDbLine
 62
     3
  6
CONTINUOUS
 10
675.000000000000
 20
335.500001000000
 11
677.000000000000
 21
335.500001000000
  0
LINE
  5
361
100
AcDbEntity
  8
0
100
AcDbLine
 62
     3
  6
CONTINUOUS
 10
679.000000000000
 20
335.500001000000
 11
681.000000000000
 21
335.500001000000
  0
LINE
  5
362
100
AcDbEntity
  8
0
100
AcDbLine
 62
     3
  6
CONTINUOUS
 10
683.000000000000
 20
335.500001000000
 11
685.000000000000
 21
335.500001000000
  0
LINE
  5
363
100
AcDbEntity
  8
0
100
AcDbLine
 62
     3
  6
CONTINUOUS
 10
687.000000000000
 20
335.500001000000
 11
689.000000000000
 21
335.500001000000
  0
LINE
  5
364
100
AcDbEntity
  8
0
100
AcDbLine
 62
     3
  6
CONTINUOUS
 10
691.000000000000
 20
335.500001000000
 11
693.000000000000
 21
335.500001000000
  0
LINE
  5
365
100
AcDbEntity
  8
0
100
AcDbLine
 62
     3
  6
CONTINUOUS
 10
695.000000000000
 20
335.500001000000
 11
697.000000000000
 21
335.500001000000
  0
LINE
  5
366
100
AcDbEntity
  8
0
100
AcDbLine
 62
     3
  6
CONTINUOUS
 10
699.000000000000
 20
335.500001000000
 11
701.000000000000
 21
335.500001000000
  0
LINE
  5
367
100
AcDbEntity
  8
0
100
AcDbLine
 62
     3
  6
CONTINUOUS
 10
703.000000000000
 20
335.500001000000
 11
705.000000000000
 21
335.500001000000
  0
LINE
  5
368
100
AcDbEntity
  8
0
100
AcDbLine
 62
     3
  6
CONTINUOUS
 10
707.000000000000
 20
335.500001000000
 11
709.000000000000
 21
335.500001000000
  0
LINE
  5
369
100
AcDbEntity
  8
0
100
AcDbLine
 62
     3
  6
CONTINUOUS
 10
711.000000000000
 20
335.500001000000
 11
713.000000000000
 21
335.500001000000
  0
LINE
  5
36A
100
AcDbEntity
  8
0
100
AcDbLine
 62
     3
  6
CONTINUOUS
 10
715.000000000000
 20
335.500001000000
 11
717.000000000000
 21
335.500001000000
  0
LINE
  5
36B
100
AcDbEntity
  8
0
100
AcDbLine
 62
     3
  6
CONTINUOUS
 10
719.000000000000
 20
335.500001000000
 11
721.000000000000
 21
335.500001000000
  0
LINE
  5
36C
100
AcDbEntity
  8
0
100
AcDbLine
 62
     3
  6
CONTINUOUS
 10
723.000000000000
 20
335.500001000000
 11
725.000000000000
 21
335.500001000000
  0
LINE
  5
36D
100
AcDbEntity
  8
0
100
AcDbLine
 62
     3
  6
CONTINUOUS
 10
727.000000000000
 20
335.500001000000
 11
729.000000000000
 21
335.500001000000
  0
LINE
  5
36E
100
AcDbEntity
  8
0
100
AcDbLine
 62
     3
  6
CONTINUOUS
 10
731.000000000000
 20
335.500001000000
 11
733.000000000000
 21
335.500001000000
  0
LINE
  5
36F
100
AcDbEntity
  8
0
100
AcDbLine
 62
     3
  6
CONTINUOUS
 10
735.000000000000
 20
335.500001000000
 11
737.000000000000
 21
335.500001000000
  0
LINE
  5
370
100
AcDbEntity
  8
0
100
AcDbLine
 62
     3
  6
CONTINUOUS
 10
739.000000000000
 20
335.500001000000
 11
741.000000000000
 21
335.500001000000
  0
LINE
  5
371
100
AcDbEntity
  8
0
100
AcDbLine
 62
     3
  6
CONTINUOUS
 10
743.000000000000
 20
335.500001000000
 11
745.000000000000
 21
335.500001000000
  0
LINE
  5
372
100
AcDbEntity
  8
0
100
AcDbLine
 62
     3
  6
CONTINUOUS
 10
747.000000000000
 20
335.500001000000
 11
749.000000000000
 21
335.500001000000
  0
LINE
  5
373
100
AcDbEntity
  8
0
100
AcDbLine
 62
     3
  6
CONTINUOUS
 10
731.500000000000
 20
384.000001000000
 11
731.500000000000
 21
386.200001000000
  0
LINE
  5
374
100
AcDbEntity
  8
0
100
AcDbLine
 62
     3
  6
CONTINUOUS
 10
744.000000000000
 20
384.000001000000
 11
664.000000000000
 21
384.000001000000
  0
LINE
  5
375
100
AcDbEntity
  8
0
100
AcDbLine
 62
     3
  6
CONTINUOUS
 10
676.500000000000
 20
386.200001000000
 11
676.500000000000
 21
384.000001000000
  0
LINE
  5
376
100
AcDbEntity
  8
0
100
AcDbLine
 62
     3
  6
CONTINUOUS
 10
731.500000000000
 20
386.200001000000
 11
676.500000000000
 21
386.200001000000
  0
LINE
  5
377
100
AcDbEntity
  8
0
100
AcDbLine
 62
     3
  6
CONTINUOUS
 10
744.000000000000
 20
375.500001000000
 11
744.000000000000
 21
384.000001000000
  0
LINE
  5
378
100
AcDbEntity
  8
0
100
AcDbLine
 62
     3
  6
CONTINUOUS
 10
664.000000000000
 20
375.500001000000
 11
744.000000000000
 21
375.500001000000
  0
LINE
  5
379
100
AcDbEntity
  8
0
100
AcDbLine
 62
     3
  6
CONTINUOUS
 10
664.000000000000
 20
384.000001000000
 11
664.000000000000
 21
375.500001000000
  0
LINE
  5
37A
100
AcDbEntity
  8
0
100
AcDbLine
 62
     0
  6
CENTER2
 48
10.0
 10
745.250004000000
 20
378.954431490732
 11
745.250004000000
 21
293.690886424614
  0
LINE
  5
37B
100
AcDbEntity
  8
0
100
AcDbLine
 62
     3
  6
CONTINUOUS
 10
735.650004000000
 20
335.500001000000
 11
749.500004000000
 21
335.500001000000
  0
LINE
  5
37C
100
AcDbEntity
  8
0
100
AcDbLine
 62
     0
  6
CENTER2
 48
10.0
 10
704.000000000000
 20
390.460529954863
 11
704.000000000000
 21
296.315568970276
  0
LINE
  5
37D
100
AcDbEntity
  8
0
100
AcDbLine
 62
     3
  6
CONTINUOUS
 10
654.640000000000
 20
369.500001000000
 11
753.360000000000
 21
369.500001000000
  0
LINE
  5
37E
100
AcDbEntity
  8
0
100
AcDbLine
 62
     3
  6
CONTINUOUS
 10
754.000000000000
 20
375.500001000000
 11
654.000000000000
 21
375.500001000000
  0
LINE
  5
37F
100
AcDbEntity
  8
0
100
AcDbLine
 62
     3
  6
CONTINUOUS
 10
750.760000000000
 20
335.500001000000
 11
750.760000000000
 21
369.500001000000
  0
LINE
  5
380
100
AcDbEntity
  8
0
100
AcDbLine
 62
     3
  6
CONTINUOUS
 10
752.760000000000
 20
335.500001000000
 11
752.760000000000
 21
369.500001000000
  0
LINE
  5
381
100
AcDbEntity
  8
0
100
AcDbLine
 62
     3
  6
CONTINUOUS
 10
754.000000000000
 20
370.608514000000
 11
754.000000000000
 21
375.500001000000
  0
LINE
  5
382
100
AcDbEntity
  8
0
100
AcDbLine
 62
     3
  6
CONTINUOUS
 10
753.360000000000
 20
369.500001000000
 11
754.000000000000
 21
370.608514000000
  0
LINE
  5
383
100
AcDbEntity
  8
0
100
AcDbLine
 62
     3
  6
CONTINUOUS
 10
654.000000000000
 20
370.608514000000
 11
654.000000000000
 21
375.500001000000
  0
LINE
  5
384
100
AcDbEntity
  8
0
100
AcDbLine
 62
     3
  6
CONTINUOUS
 10
654.640000000000
 20
369.500001000000
 11
654.000000000000
 21
370.608514000000
  0
LINE
  5
385
100
AcDbEntity
  8
0
100
AcDbLine
 62
     0
  6
CENTER2
 48
10.0
 10
672.316029323506
 20
377.375001000000
 11
622.461298985647
 21
377.375001000000
  0
LINE
  5
386
100
AcDbEntity
  8
0
100
AcDbLine
 62
     3
  6
CONTINUOUS
 10
637.000000000000
 20
378.260001000000
 11
637.000000000000
 21
376.490001000000
  0
LINE
  5
387
100
AcDbEntity
  8
0
100
AcDbLine
 62
     3
  6
CONTINUOUS
 10
632.000000000000
 20
377.860001000000
 11
632.000000000000
 21
376.890001000000
  0
LINE
  5
388
100
AcDbEntity
  8
0
100
AcDbLine
 62
     3
  6
CONTINUOUS
 10
664.000000000000
 20
378.090001000000
 11
664.000000000000
 21
376.910001000000
  0
LINE
  5
389
100
AcDbEntity
  8
0
100
AcDbLine
 62
     3
  6
CONTINUOUS
 10
648.125318083765
 20
378.260001000353
 11
637.000000000000
 21
378.260001000000
  0
LINE
  5
38A
100
AcDbEntity
  8
0
100
AcDbLine
 62
     3
  6
CONTINUOUS
 10
649.625318084613
 20
378.260001001459
 11
664.000000000000
 21
378.260001000000
  0
LINE
  5
38B
100
AcDbEntity
  8
0
100
AcDbLine
 62
     3
  6
CONTINUOUS
 10
646.655491647007
 20
376.490001000611
 11
637.000000000000
 21
376.490001000000
  0
LINE
  5
38C
100
AcDbEntity
  8
0
100
AcDbLine
 62
     3
  6
CONTINUOUS
 10
648.155491647007
 20
376.490001000611
 11
664.000000000000
 21
376.490001000000
  0
LINE
  5
38D
100
AcDbEntity
  8
0
100
AcDbLine
 62
     3
  6
CONTINUOUS
 10
637.000000000000
 20
377.860001000000
 11
632.000000000000
 21
377.860001000000
  0
LINE
  5
38E
100
AcDbEntity
  8
0
100
AcDbLine
 62
     3
  6
CONTINUOUS
 10
637.000000000000
 20
376.890001000000
 11
632.000000000000
 21
376.890001000000
  0
CIRCLE
  5
38F
100
AcDbEntity
  8
0
100
AcDbCircle
 62
     3
  6
CONTINUOUS
 10
739.000000000000
 20
371.300001000000
 40
1.500000000000
  0
CIRCLE
  5
390
100
AcDbEntity
  8
0
100
AcDbCircle
 62
     0
  6
CONTINUOUS
 10
739.000000000000
 20
371.300001000000
 40
1.700000000000
  0
LINE
  5
391
100
AcDbEntity
  8
0
100
AcDbLine
 62
     0
  6
CENTER2
 48
10.0
 10
554.000000000000
 20
541.500001000000
 11
554.000000000000
 21
549.500001000000
  0
LINE
  5
392
100
AcDbEntity
  8
0
100
AcDbLine
 62
     0
  6
CENTER2
 48
10.0
 10
558.000000000000
 20
545.500001000000
 11
550.000000000000
 21
545.500001000000
  0
LINE
  5
393
100
AcDbEntity
  8
0
100
AcDbLine
 62
     0
  6
CENTER2
 48
10.0
 10
514.000000000000
 20
541.500001000000
 11
514.000000000000
 21
549.500001000000
  0
LINE
  5
394
100
AcDbEntity
  8
0
100
AcDbLine
 62
     0
  6
CENTER2
 48
10.0
 10
518.000000000000
 20
545.500001000000
 11
510.000000000000
 21
545.500001000000
  0
LINE
  5
395
100
AcDbEntity
  8
0
100
AcDbLine
 62
     0
  6
CENTER2
 48
10.0
 10
514.000000000000
 20
501.500001000000
 11
514.000000000000
 21
509.500001000000
  0
LINE
  5
396
100
AcDbEntity
  8
0
100
AcDbLine
 62
     0
  6
CENTER2
 48
10.0
 10
518.000000000000
 20
505.500001000000
 11
510.000000000000
 21
505.500001000000
  0
LINE
  5
397
100
AcDbEntity
  8
0
100
AcDbLine
 62
     0
  6
CENTER2
 48
10.0
 10
739.000000000000
 20
367.300001000000
 11
739.000000000000
 21
375.300001000000
  0
LINE
  5
398
100
AcDbEntity
  8
0
100
AcDbLine
 62
     0
  6
CENTER2
 48
10.0
 10
743.000000000000
 20
371.300001000000
 11
735.000000000000
 21
371.300001000000
  0
LINE
  5
399
100
AcDbEntity
  8
0
100
AcDbLine
 62
     0
  6
CENTER2
 48
10.0
 10
669.000000000000
 20
367.300001000000
 11
669.000000000000
 21
375.300001000000
  0
LINE
  5
39A
100
AcDbEntity
  8
0
100
AcDbLine
 62
     0
  6
CENTER2
 48
10.0
 10
673.000000000000
 20
371.300001000000
 11
665.000000000000
 21
371.300001000000
  0
CIRCLE
  5
39B
100
AcDbEntity
  8
0
100
AcDbCircle
 62
     3
  6
CONTINUOUS
 10
669.000000000000
 20
371.300001000000
 40
1.500000000000
  0
CIRCLE
  5
39C
100
AcDbEntity
  8
0
100
AcDbCircle
 62
     0
  6
CONTINUOUS
 10
669.000000000000
 20
371.300001000000
 40
1.700000000000
  0
LINE
  5
39D
100
AcDbEntity
  8
0
100
AcDbLine
 62
     0
  6
CENTER2
 48
10.0
 10
492.749996000000
 20
379.781865047050
 11
492.749996000000
 21
293.690886424614
  0
LINE
  5
39E
100
AcDbEntity
  8
0
100
AcDbLine
 62
     0
  6
CENTER2
 48
10.0
 10
662.749996000000
 20
378.954431490732
 11
662.749996000000
 21
293.690886424614
  0
LINE
  5
39F
100
AcDbEntity
  8
0
100
AcDbLine
 62
     0
  6
CENTER2
 48
10.0
 10
576.281324148178
 20
371.300001000000
 11
586.624113589525
 21
371.300001000000
  0
LINE
  5
3A0
100
AcDbEntity
  8
0
100
AcDbLine
 62
     3
  6
HIDDEN
 48
10.0
 10
584.000000000000
 20
372.800001000000
 11
579.500000000000
 21
372.800001000000
  0
LINE
  5
3A1
100
AcDbEntity
  8
0
100
AcDbLine
 62
     3
  6
HIDDEN
 48
10.0
 10
583.533205005264
 20
369.800001000000
 11
579.500000000000
 21
369.800001000000
  0
LINE
  5
3A2
100
AcDbEntity
  8
0
100
AcDbLine
 62
     3
  6
HIDDEN
 48
10.0
 10
579.500000000000
 20
369.600001000000
 11
579.500000000000
 21
373.000001000000
  0
LINE
  5
3A3
100
AcDbEntity
  8
0
100
AcDbLine
 62
     0
  6
HIDDEN
 48
10.0
 10
583.417735001755
 20
369.600001000000
 11
579.500000000000
 21
369.600001000000
  0
LINE
  5
3A4
100
AcDbEntity
  8
0
100
AcDbLine
 62
     0
  6
HIDDEN
 48
10.0
 10
584.000000000000
 20
373.000001000000
 11
579.500000000000
 21
373.000001000000
  0
LINE
  5
3A5
100
AcDbEntity
  8
0
100
AcDbLine
 62
     0
  6
HIDDEN
 48
10.0
 10
484.000000000000
 20
373.000001000000
 11
488.500000000000
 21
373.000001000000
  0
LINE
  5
3A6
100
AcDbEntity
  8
0
100
AcDbLine
 62
     3
  6
HIDDEN
 48
10.0
 10
488.500000000000
 20
369.600001000000
 11
488.500000000000
 21
373.000001000000
  0
LINE
  5
3A7
100
AcDbEntity
  8
0
100
AcDbLine
 62
     0
  6
CENTER2
 48
10.0
 10
491.718675851822
 20
371.300001000000
 11
481.375886410475
 21
371.300001000000
  0
LINE
  5
3A8
100
AcDbEntity
  8
0
100
AcDbLine
 62
     3
  6
HIDDEN
 48
10.0
 10
484.000000000000
 20
372.800001000000
 11
488.500000000000
 21
372.800001000000
  0
LINE
  5
3A9
100
AcDbEntity
  8
0
100
AcDbLine
 62
     3
  6
HIDDEN
 48
10.0
 10
484.466794994736
 20
369.800001000000
 11
488.500000000000
 21
369.800001000000
  0
LINE
  5
3AA
100
AcDbEntity
  8
0
100
AcDbLine
 62
     0
  6
HIDDEN
 48
10.0
 10
484.582264998245
 20
369.600001000000
 11
488.500000000000
 21
369.600001000000
  0
LINE
  5
3AB
100
AcDbEntity
  8
0
100
AcDbLine
 62
     0
  6
CENTER2
 48
10.0
 10
576.281324148178
 20
490.500001000000
 11
586.624113589525
 21
490.500001000000
  0
LINE
  5
3AC
100
AcDbEntity
  8
0
100
AcDbLine
 62
     3
  6
HIDDEN
 48
10.0
 10
584.000000000000
 20
492.000001000000
 11
579.500000000000
 21
492.000001000000
  0
LINE
  5
3AD
100
AcDbEntity
  8
0
100
AcDbLine
 62
     3
  6
HIDDEN
 48
10.0
 10
584.000000000000
 20
489.000001000000
 11
579.500000000000
 21
489.000001000000
  0
LINE
  5
3AE
100
AcDbEntity
  8
0
100
AcDbLine
 62
     3
  6
HIDDEN
 48
10.0
 10
579.500000000000
 20
488.800001000000
 11
579.500000000000
 21
492.200001000000
  0
LINE
  5
3AF
100
AcDbEntity
  8
0
100
AcDbLine
 62
     0
  6
HIDDEN
 48
10.0
 10
584.000000000000
 20
488.800001000000
 11
579.500000000000
 21
488.800001000000
  0
LINE
  5
3B0
100
AcDbEntity
  8
0
100
AcDbLine
 62
     0
  6
HIDDEN
 48
10.0
 10
584.000000000000
 20
492.200001000000
 11
579.500000000000
 21
492.200001000000
  0
LINE
  5
3B1
100
AcDbEntity
  8
0
100
AcDbLine
 62
     0
  6
HIDDEN
 48
10.0
 10
484.000000000000
 20
492.200001000000
 11
488.500000000000
 21
492.200001000000
  0
LINE
  5
3B2
100
AcDbEntity
  8
0
100
AcDbLine
 62
     0
  6
CENTER2
 48
10.0
 10
491.718675851822
 20
490.500001000000
 11
481.375886410475
 21
490.500001000000
  0
LINE
  5
3B3
100
AcDbEntity
  8
0
100
AcDbLine
 62
     3
  6
HIDDEN
 48
10.0
 10
484.000000000000
 20
489.000001000000
 11
488.500000000000
 21
489.000001000000
  0
LINE
  5
3B4
100
AcDbEntity
  8
0
100
AcDbLine
 62
     0
  6
HIDDEN
 48
10.0
 10
484.000000000000
 20
488.800001000000
 11
488.500000000000
 21
488.800001000000
  0
LINE
  5
3B5
100
AcDbEntity
  8
0
100
AcDbLine
 62
     3
  6
HIDDEN
 48
10.0
 10
484.000000000000
 20
492.000001000000
 11
488.500000000000
 21
492.000001000000
  0
LINE
  5
3B6
100
AcDbEntity
  8
0
100
AcDbLine
 62
     3
  6
HIDDEN
 48
10.0
 10
488.500000000000
 20
488.800001000000
 11
488.500000000000
 21
492.200001000000
  0
LINE
  5
3B7
100
AcDbEntity
  8
0
100
AcDbLine
 62
     0
  6
HIDDEN
 48
10.0
 10
484.000000000000
 20
562.200001000000
 11
488.500000000000
 21
562.200001000000
  0
LINE
  5
3B8
100
AcDbEntity
  8
0
100
AcDbLine
 62
     0
  6
CENTER2
 48
10.0
 10
491.718675851822
 20
560.500001000000
 11
481.375886410475
 21
560.500001000000
  0
LINE
  5
3B9
100
AcDbEntity
  8
0
100
AcDbLine
 62
     3
  6
HIDDEN
 48
10.0
 10
484.000000000000
 20
559.000001000000
 11
488.500000000000
 21
559.000001000000
  0
LINE
  5
3BA
100
AcDbEntity
  8
0
100
AcDbLine
 62
     0
  6
HIDDEN
 48
10.0
 10
484.000000000000
 20
558.800001000000
 11
488.500000000000
 21
558.800001000000
  0
LINE
  5
3BB
100
AcDbEntity
  8
0
100
AcDbLine
 62
     3
  6
HIDDEN
 48
10.0
 10
484.000000000000
 20
562.000001000000
 11
488.500000000000
 21
562.000001000000
  0
LINE
  5
3BC
100
AcDbEntity
  8
0
100
AcDbLine
 62
     3
  6
HIDDEN
 48
10.0
 10
488.500000000000
 20
558.800001000000
 11
488.500000000000
 21
562.200001000000
  0
LINE
  5
3BD
100
AcDbEntity
  8
0
100
AcDbLine
 62
     0
  6
CENTER2
 48
10.0
 10
576.281324148178
 20
560.500001000000
 11
586.624113589525
 21
560.500001000000
  0
LINE
  5
3BE
100
AcDbEntity
  8
0
100
AcDbLine
 62
     3
  6
HIDDEN
 48
10.0
 10
584.000000000000
 20
562.000001000000
 11
579.500000000000
 21
562.000001000000
  0
LINE
  5
3BF
100
AcDbEntity
  8
0
100
AcDbLine
 62
     3
  6
HIDDEN
 48
10.0
 10
584.000000000000
 20
559.000001000000
 11
579.500000000000
 21
559.000001000000
  0
LINE
  5
3C0
100
AcDbEntity
  8
0
100
AcDbLine
 62
     3
  6
HIDDEN
 48
10.0
 10
579.500000000000
 20
558.800001000000
 11
579.500000000000
 21
562.200001000000
  0
LINE
  5
3C1
100
AcDbEntity
  8
0
100
AcDbLine
 62
     0
  6
HIDDEN
 48
10.0
 10
584.000000000000
 20
558.800001000000
 11
579.500000000000
 21
558.800001000000
  0
LINE
  5
3C2
100
AcDbEntity
  8
0
100
AcDbLine
 62
     0
  6
HIDDEN
 48
10.0
 10
584.000000000000
 20
562.200001000000
 11
579.500000000000
 21
562.200001000000
  0
LINE
  5
3C3
100
AcDbEntity
  8
0
100
AcDbLine
 62
     3
  6
CONTINUOUS
 10
572.000000000000
 20
375.500001000000
 11
572.000000000000
 21
384.000001000000
  0
LINE
  5
3C4
100
AcDbEntity
  8
0
100
AcDbLine
 62
     3
  6
CONTINUOUS
 10
496.000000000000
 20
384.000001000000
 11
496.000000000000
 21
375.500001000000
  0
LINE
  5
3C5
100
AcDbEntity
  8
0
100
AcDbLine
 62
     3
  6
CONTINUOUS
 10
494.000000000000
 20
384.000001000000
 11
494.000000000000
 21
375.500001000000
  0
LINE
  5
3C6
100
AcDbEntity
  8
0
100
AcDbLine
 62
     3
  6
CONTINUOUS
 10
666.000000000000
 20
384.000001000000
 11
666.000000000000
 21
375.500001000000
  0
LINE
  5
3C7
100
AcDbEntity
  8
0
100
AcDbLine
 62
     3
  6
CONTINUOUS
 10
742.000000000000
 20
375.500001000000
 11
742.000000000000
 21
384.000001000000
  0
ARC
  5
3C8
100
AcDbEntity
  8
0
100
AcDbCircle
 62
     3
  6
CONTINUOUS
 10
559.500000000000
 20
500.000001000000
 40
2.000000000000
100
AcDbArc
 50
269.999999985475
 51
359.999999980633
  0
LINE
  5
3C9
100
AcDbEntity
  8
0
100
AcDbLine
 62
     3
  6
CONTINUOUS
 10
561.500000000000
 20
500.000001000000
 11
561.500000000000
 21
551.000001000000
  0
ARC
  5
3CA
100
AcDbEntity
  8
0
100
AcDbCircle
 62
     3
  6
CONTINUOUS
 10
508.500000000000
 20
500.000001000000
 40
2.000000000000
100
AcDbArc
 50
179.999999990317
 51
269.999999985475
  0
LINE
  5
3CB
100
AcDbEntity
  8
0
100
AcDbLine
 62
     3
  6
CONTINUOUS
 10
508.500000000000
 20
498.000001000000
 11
559.500000000000
 21
498.000001000000
  0
LINE
  5
3CC
100
AcDbEntity
  8
0
100
AcDbLine
 62
     3
  6
CONTINUOUS
 10
506.500000000000
 20
500.000001000000
 11
506.500000000000
 21
551.000001000000
  0
ARC
  5
3CD
100
AcDbEntity
  8
0
100
AcDbCircle
 62
     3
  6
CONTINUOUS
 10
508.500000000000
 20
551.000001000000
 40
2.000000000000
100
AcDbArc
 50
89.999999995158
 51
179.999999990317
  0
ARC
  5
3CE
100
AcDbEntity
  8
0
100
AcDbCircle
 62
     3
  6
CONTINUOUS
 10
559.500000000000
 20
551.000001000000
 40
2.000000000000
100
AcDbArc
 50
0.000000000000
 51
89.999999995158
  0
LINE
  5
3CF
100
AcDbEntity
  8
0
100
AcDbLine
 62
     3
  6
CONTINUOUS
 10
559.500000000000
 20
553.000001000000
 11
508.500000000000
 21
553.000001000000
  0
LINE
  5
3D0
100
AcDbEntity
  8
0
100
AcDbLine
 62
     3
  6
CONTINUOUS
 10
574.000000000000
 20
563.500001000000
 11
572.000000000000
 21
565.500001000000
  0
LINE
  5
3D1
100
AcDbEntity
  8
0
100
AcDbLine
 62
     3
  6
CONTINUOUS
 10
574.000000000000
 20
563.500001000000
 11
574.000000000000
 21
487.500001000000
  0
LINE
  5
3D2
100
AcDbEntity
  8
0
100
AcDbLine
 62
     3
  6
CONTINUOUS
 10
572.000000000000
 20
485.500001000000
 11
574.000000000000
 21
487.500001000000
  0
LINE
  5
3D3
100
AcDbEntity
  8
0
100
AcDbLine
 62
     3
  6
CONTINUOUS
 10
572.000000000000
 20
485.500001000000
 11
496.000000000000
 21
485.500001000000
  0
LINE
  5
3D4
100
AcDbEntity
  8
0
100
AcDbLine
 62
     3
  6
CONTINUOUS
 10
494.000000000000
 20
487.500001000000
 11
496.000000000000
 21
485.500001000000
  0
LINE
  5
3D5
100
AcDbEntity
  8
0
100
AcDbLine
 62
     3
  6
CONTINUOUS
 10
494.000000000000
 20
487.500001000000
 11
494.000000000000
 21
563.500001000000
  0
LINE
  5
3D6
100
AcDbEntity
  8
0
100
AcDbLine
 62
     3
  6
CONTINUOUS
 10
496.000000000000
 20
565.500001000000
 11
494.000000000000
 21
563.500001000000
  0
LINE
  5
3D7
100
AcDbEntity
  8
0
100
AcDbLine
 62
     3
  6
CONTINUOUS
 10
572.000000000000
 20
565.500001000000
 11
496.000000000000
 21
565.500001000000
  0
ARC
  5
3D8
100
AcDbEntity
  8
0
100
AcDbCircle
 62
     3
  6
CONTINUOUS
 10
582.000000000000
 20
573.500001000000
 40
2.000000000000
100
AcDbArc
 50
0.000000000000
 51
89.999999995158
  0
LINE
  5
3D9
100
AcDbEntity
  8
0
100
AcDbLine
 62
     3
  6
CONTINUOUS
 10
584.000000000000
 20
573.500001000000
 11
584.000000000000
 21
477.500001000000
  0
LINE
  5
3DA
100
AcDbEntity
  8
0
100
AcDbLine
 62
     3
  6
CONTINUOUS
 10
486.000000000000
 20
475.500001000000
 11
514.659999997311
 21
475.500001000000
  0
LINE
  5
3DB
100
AcDbEntity
  8
0
100
AcDbLine
 62
     3
  6
CONTINUOUS
 10
551.865000000000
 20
475.500001000000
 11
515.840000000658
 21
475.500001000000
  0
ARC
  5
3DC
100
AcDbEntity
  8
0
100
AcDbCircle
 62
     3
  6
CONTINUOUS
 10
582.000000000000
 20
477.500001000000
 40
2.000000000000
100
AcDbArc
 50
269.999999985475
 51
359.999999980633
  0
LINE
  5
3DD
100
AcDbEntity
  8
0
100
AcDbLine
 62
     3
  6
CONTINUOUS
 10
553.635000000000
 20
475.500001000000
 11
582.000000000000
 21
475.500001000000
  0
ARC
  5
3DE
100
AcDbEntity
  8
0
100
AcDbCircle
 62
     3
  6
CONTINUOUS
 10
486.000000000000
 20
477.500001000000
 40
2.000000000000
100
AcDbArc
 50
179.999999990317
 51
269.999999985475
  0
LINE
  5
3DF
100
AcDbEntity
  8
0
100
AcDbLine
 62
     3
  6
CONTINUOUS
 10
484.000000000000
 20
477.500001000000
 11
484.000000000000
 21
573.500001000000
  0
ARC
  5
3E0
100
AcDbEntity
  8
0
100
AcDbCircle
 62
     3
  6
CONTINUOUS
 10
486.000000000000
 20
573.500001000000
 40
2.000000000000
100
AcDbArc
 50
89.999999995158
 51
179.999999990317
  0
LINE
  5
3E1
100
AcDbEntity
  8
0
100
AcDbLine
 62
     3
  6
CONTINUOUS
 10
582.000000000000
 20
575.500001000000
 11
486.000000000000
 21
575.500001000000
  0
CIRCLE
  5
3E2
100
AcDbEntity
  8
0
100
AcDbCircle
 62
     3
  6
CONTINUOUS
 10
554.000000000000
 20
545.500001000000
 40
2.000000000000
  0
CIRCLE
  5
3E3
100
AcDbEntity
  8
0
100
AcDbCircle
 62
     3
  6
CONTINUOUS
 10
554.000000000000
 20
505.500001000000
 40
2.000000000000
  0
CIRCLE
  5
3E4
100
AcDbEntity
  8
0
100
AcDbCircle
 62
     3
  6
CONTINUOUS
 10
514.000000000000
 20
545.500001000000
 40
2.000000000000
  0
CIRCLE
  5
3E5
100
AcDbEntity
  8
0
100
AcDbCircle
 62
     3
  6
CONTINUOUS
 10
514.000000000000
 20
545.500001000000
 40
2.000000000000
  0
CIRCLE
  5
3E6
100
AcDbEntity
  8
0
100
AcDbCircle
 62
     3
  6
CONTINUOUS
 10
514.000000000000
 20
505.500001000000
 40
2.000000000000
  0
LINE
  5
3E7
100
AcDbEntity
  8
0
100
AcDbLine
 62
     3
  6
CONTINUOUS
 10
484.000000000000
 20
375.500001000000
 11
584.000000000000
 21
375.500001000000
  0
LINE
  5
3E8
100
AcDbEntity
  8
0
100
AcDbLine
 62
     3
  6
CONTINUOUS
 10
574.000000000000
 20
384.000001000000
 11
535.300000000000
 21
384.000001000000
  0
LINE
  5
3E9
100
AcDbEntity
  8
0
100
AcDbLine
 62
     3
  6
CONTINUOUS
 10
489.000000000000
 20
335.500001000000
 11
491.000000000000
 21
335.500001000000
  0
LINE
  5
3EA
100
AcDbEntity
  8
0
100
AcDbLine
 62
     3
  6
CONTINUOUS
 10
493.000000000000
 20
335.500001000000
 11
495.000000000000
 21
335.500001000000
  0
LINE
  5
3EB
100
AcDbEntity
  8
0
100
AcDbLine
 62
     3
  6
CONTINUOUS
 10
497.000000000000
 20
335.500001000000
 11
499.000000000000
 21
335.500001000000
  0
LINE
  5
3EC
100
AcDbEntity
  8
0
100
AcDbLine
 62
     3
  6
CONTINUOUS
 10
501.000000000000
 20
335.500001000000
 11
503.000000000000
 21
335.500001000000
  0
LINE
  5
3ED
100
AcDbEntity
  8
0
100
AcDbLine
 62
     3
  6
CONTINUOUS
 10
505.000000000000
 20
335.500001000000
 11
507.000000000000
 21
335.500001000000
  0
LINE
  5
3EE
100
AcDbEntity
  8
0
100
AcDbLine
 62
     3
  6
CONTINUOUS
 10
509.000000000000
 20
335.500001000000
 11
511.000000000000
 21
335.500001000000
  0
LINE
  5
3EF
100
AcDbEntity
  8
0
100
AcDbLine
 62
     3
  6
CONTINUOUS
 10
513.000000000000
 20
335.500001000000
 11
515.000000000000
 21
335.500001000000
  0
LINE
  5
3F0
100
AcDbEntity
  8
0
100
AcDbLine
 62
     3
  6
CONTINUOUS
 10
517.000000000000
 20
335.500001000000
 11
519.000000000000
 21
335.500001000000
  0
LINE
  5
3F1
100
AcDbEntity
  8
0
100
AcDbLine
 62
     3
  6
CONTINUOUS
 10
521.000000000000
 20
335.500001000000
 11
523.000000000000
 21
335.500001000000
  0
LINE
  5
3F2
100
AcDbEntity
  8
0
100
AcDbLine
 62
     3
  6
CONTINUOUS
 10
525.000000000000
 20
335.500001000000
 11
527.000000000000
 21
335.500001000000
  0
LINE
  5
3F3
100
AcDbEntity
  8
0
100
AcDbLine
 62
     3
  6
CONTINUOUS
 10
529.000000000000
 20
335.500001000000
 11
531.000000000000
 21
335.500001000000
  0
LINE
  5
3F4
100
AcDbEntity
  8
0
100
AcDbLine
 62
     3
  6
CONTINUOUS
 10
533.000000000000
 20
335.500001000000
 11
535.000000000000
 21
335.500001000000
  0
LINE
  5
3F5
100
AcDbEntity
  8
0
100
AcDbLine
 62
     3
  6
CONTINUOUS
 10
537.000000000000
 20
335.500001000000
 11
539.000000000000
 21
335.500001000000
  0
LINE
  5
3F6
100
AcDbEntity
  8
0
100
AcDbLine
 62
     3
  6
CONTINUOUS
 10
541.000000000000
 20
335.500001000000
 11
543.000000000000
 21
335.500001000000
  0
LINE
  5
3F7
100
AcDbEntity
  8
0
100
AcDbLine
 62
     3
  6
CONTINUOUS
 10
545.000000000000
 20
335.500001000000
 11
547.000000000000
 21
335.500001000000
  0
LINE
  5
3F8
100
AcDbEntity
  8
0
100
AcDbLine
 62
     3
  6
CONTINUOUS
 10
549.000000000000
 20
335.500001000000
 11
551.000000000000
 21
335.500001000000
  0
LINE
  5
3F9
100
AcDbEntity
  8
0
100
AcDbLine
 62
     3
  6
CONTINUOUS
 10
553.000000000000
 20
335.500001000000
 11
555.000000000000
 21
335.500001000000
  0
LINE
  5
3FA
100
AcDbEntity
  8
0
100
AcDbLine
 62
     3
  6
CONTINUOUS
 10
557.000000000000
 20
335.500001000000
 11
559.000000000000
 21
335.500001000000
  0
LINE
  5
3FB
100
AcDbEntity
  8
0
100
AcDbLine
 62
     3
  6
CONTINUOUS
 10
561.000000000000
 20
335.500001000000
 11
563.000000000000
 21
335.500001000000
  0
LINE
  5
3FC
100
AcDbEntity
  8
0
100
AcDbLine
 62
     3
  6
CONTINUOUS
 10
565.000000000000
 20
335.500001000000
 11
567.000000000000
 21
335.500001000000
  0
LINE
  5
3FD
100
AcDbEntity
  8
0
100
AcDbLine
 62
     3
  6
CONTINUOUS
 10
569.000000000000
 20
335.500001000000
 11
571.000000000000
 21
335.500001000000
  0
LINE
  5
3FE
100
AcDbEntity
  8
0
100
AcDbLine
 62
     3
  6
CONTINUOUS
 10
573.000000000000
 20
335.500001000000
 11
575.000000000000
 21
335.500001000000
  0
LINE
  5
3FF
100
AcDbEntity
  8
0
100
AcDbLine
 62
     3
  6
CONTINUOUS
 10
561.500000000000
 20
384.000001000000
 11
561.500000000000
 21
386.200001000000
  0
LINE
  5
400
100
AcDbEntity
  8
0
100
AcDbLine
 62
     3
  6
CONTINUOUS
 10
494.000000000000
 20
384.000001000000
 11
532.700000000000
 21
384.000001000000
  0
LINE
  5
401
100
AcDbEntity
  8
0
100
AcDbLine
 62
     3
  6
CONTINUOUS
 10
506.500000000000
 20
386.200001000000
 11
506.500000000000
 21
384.000001000000
  0
LINE
  5
402
100
AcDbEntity
  8
0
100
AcDbLine
 62
     3
  6
CONTINUOUS
 10
561.500000000000
 20
386.200001000000
 11
506.500000000000
 21
386.200001000000
  0
LINE
  5
403
100
AcDbEntity
  8
0
100
AcDbLine
 62
     3
  6
CONTINUOUS
 10
574.000000000000
 20
375.500001000000
 11
574.000000000000
 21
384.000001000000
  0
LINE
  5
404
100
AcDbEntity
  8
0
100
AcDbLine
 62
     3
  6
CONTINUOUS
 10
494.000000000000
 20
384.000001000000
 11
494.000000000000
 21
375.500001000000
  0
LINE
  5
405
100
AcDbEntity
  8
0
100
AcDbLine
 62
     0
  6
CENTER2
 48
10.0
 10
558.000000000000
 20
505.500001000000
 11
550.000000000000
 21
505.500001000000
  0
LINE
  5
406
100
AcDbEntity
  8
0
100
AcDbLine
 62
     0
  6
CENTER2
 48
10.0
 10
554.000000000000
 20
501.500001000000
 11
554.000000000000
 21
509.500001000000
  0
LINE
  5
407
100
AcDbEntity
  8
0
100
AcDbLine
 62
     2
  6
CONTINUOUS
 10
531.224769132100
 20
305.300001000000
 11
504.431370849898
 21
305.300001000000
  0
LINE
  5
408
100
AcDbEntity
  8
0
100
AcDbLine
 62
     2
  6
CONTINUOUS
 10
504.762741699797
 20
306.900001000000
 11
531.224769132100
 21
306.900001000000
  0
LINE
  5
409
100
AcDbEntity
  8
0
100
AcDbLine
 62
     2
  6
CONTINUOUS
 10
503.162741699797
 20
308.500001000000
 11
564.837258300203
 21
308.500001000000
  0
LINE
  5
40A
100
AcDbEntity
  8
0
100
AcDbLine
 62
     2
  6
CONTINUOUS
 10
536.775230867900
 20
305.300001000000
 11
563.568629150102
 21
305.300001000000
  0
ARC
  5
40B
100
AcDbEntity
  8
0
100
AcDbCircle
 62
     2
  6
CONTINUOUS
 10
536.775230867900
 20
306.100001000000
 40
0.800000000000
100
AcDbArc
 50
89.999999995158
 51
269.999999985441
  0
ARC
  5
40C
100
AcDbEntity
  8
0
100
AcDbCircle
 62
     3
  6
CONTINUOUS
 10
574.750003000000
 20
308.700001000000
 40
2.000000000000
100
AcDbArc
 50
179.999999990317
 51
269.999999985475
  0
ARC
  5
40D
100
AcDbEntity
  8
0
100
AcDbCircle
 62
     3
  6
CONTINUOUS
 10
575.750003000000
 20
308.700001000000
 40
2.000000000000
100
AcDbArc
 50
269.999999985475
 51
359.999999980633
  0
LINE
  5
40E
100
AcDbEntity
  8
0
100
AcDbLine
 62
     3
  6
CONTINUOUS
 10
575.750003000000
 20
306.700001000000
 11
574.750003000000
 21
306.700001000000
  0
ARC
  5
40F
100
AcDbEntity
  8
0
100
AcDbCircle
 62
     3
  6
CONTINUOUS
 10
492.250003000000
 20
308.700001000000
 40
2.000000000000
100
AcDbArc
 50
179.999999990317
 51
269.999999985475
  0
ARC
  5
410
100
AcDbEntity
  8
0
100
AcDbCircle
 62
     3
  6
CONTINUOUS
 10
493.250003000000
 20
308.700001000000
 40
2.000000000000
100
AcDbArc
 50
269.999999985475
 51
359.999999980633
  0
LINE
  5
411
100
AcDbEntity
  8
0
100
AcDbLine
 62
     3
  6
CONTINUOUS
 10
493.250003000000
 20
306.700001000000
 11
492.250003000000
 21
306.700001000000
  0
LINE
  5
412
100
AcDbEntity
  8
0
100
AcDbLine
 62
     3
  6
CONTINUOUS
 10
505.649996000000
 20
310.300001000000
 11
502.349996000000
 21
310.300001000000
  0
LINE
  5
413
100
AcDbEntity
  8
0
100
AcDbLine
 62
     2
  6
CONTINUOUS
 10
490.050000000000
 20
308.500001000000
 11
500.900000000000
 21
308.500001000000
  0
ARC
  5
414
100
AcDbEntity
  8
0
100
AcDbCircle
 62
     2
  6
CONTINUOUS
 10
504.431370849898
 20
306.100001000000
 40
0.800000000000
100
AcDbArc
 50
224.999999987869
 51
269.999999985441
  0
ARC
  5
415
100
AcDbEntity
  8
0
100
AcDbCircle
 62
     2
  6
CONTINUOUS
 10
501.031370849898
 20
309.500001000000
 40
0.800000000000
100
AcDbArc
 50
44.999999997515
 51
89.999999995158
  0
ARC
  5
416
100
AcDbEntity
  8
0
100
AcDbCircle
 62
     2
  6
CONTINUOUS
 10
489.750000000000
 20
309.500001000000
 40
0.800000000000
100
AcDbArc
 50
179.999999990300
 51
269.999999985441
  0
ARC
  5
417
100
AcDbEntity
  8
0
100
AcDbCircle
 62
     2
  6
CONTINUOUS
 10
489.750000000000
 20
309.500001000000
 40
0.800000000000
100
AcDbArc
 50
89.999999995158
 51
179.999999990300
  0
ARC
  5
418
100
AcDbEntity
  8
0
100
AcDbCircle
 62
     2
  6
CONTINUOUS
 10
563.568629150102
 20
306.100001000000
 40
0.800000000000
100
AcDbArc
 50
269.999999985441
 51
314.999999983015
  0
ARC
  5
419
100
AcDbEntity
  8
0
100
AcDbCircle
 62
     2
  6
CONTINUOUS
 10
566.968629150101
 20
309.500001000000
 40
0.800000000000
100
AcDbArc
 50
89.999999995158
 51
134.999999992730
  0
ARC
  5
41A
100
AcDbEntity
  8
0
100
AcDbCircle
 62
     2
  6
CONTINUOUS
 10
578.250000000000
 20
309.500001000000
 40
0.800000000000
100
AcDbArc
 50
269.999999985441
 51
359.999999980582
  0
ARC
  5
41B
100
AcDbEntity
  8
0
100
AcDbCircle
 62
     2
  6
CONTINUOUS
 10
578.250000000000
 20
309.500001000000
 40
0.800000000000
100
AcDbArc
 50
359.999999980582
 51
89.999999975792
  0
ARC
  5
41C
100
AcDbEntity
  8
0
100
AcDbCircle
 62
     2
  6
CONTINUOUS
 10
531.224769132100
 20
306.100001000000
 40
0.800000000000
100
AcDbArc
 50
269.999999985441
 51
89.999999975792
  0
ARC
  5
41D
100
AcDbEntity
  8
0
100
AcDbCircle
 62
     2
  6
CONTINUOUS
 10
577.950000000000
 20
307.700001000000
 40
0.800000000000
100
AcDbArc
 50
269.999999985441
 51
359.999999980582
  0
ARC
  5
41E
100
AcDbEntity
  8
0
100
AcDbCircle
 62
     2
  6
CONTINUOUS
 10
577.950000000000
 20
307.700001000000
 40
0.800000000000
100
AcDbArc
 50
359.999999980582
 51
89.999999975792
  0
LINE
  5
41F
100
AcDbEntity
  8
0
100
AcDbLine
 62
     2
  6
CONTINUOUS
 10
504.762741699797
 20
306.900001000000
 11
501.597056274848
 21
310.065686424949
  0
LINE
  5
420
100
AcDbEntity
  8
0
100
AcDbLine
 62
     2
  6
CONTINUOUS
 10
503.865685424949
 20
305.534315575051
 11
500.700000000000
 21
308.700001000000
  0
LINE
  5
421
100
AcDbEntity
  8
0
100
AcDbLine
 62
     2
  6
CONTINUOUS
 10
500.700000000000
 20
308.700001000000
 11
500.534660953732
 21
308.700001000000
  0
LINE
  5
422
100
AcDbEntity
  8
0
100
AcDbLine
 62
     2
  6
CONTINUOUS
 10
566.402943725152
 20
310.065686424949
 11
563.237258300203
 21
306.900001000000
  0
LINE
  5
423
100
AcDbEntity
  8
0
100
AcDbLine
 62
     2
  6
CONTINUOUS
 10
566.968629150101
 20
310.300001000000
 11
578.250000000000
 21
310.300001000000
  0
LINE
  5
424
100
AcDbEntity
  8
0
100
AcDbLine
 62
     2
  6
CONTINUOUS
 10
576.621782788708
 20
306.900001000000
 11
577.950000000000
 21
306.900001000000
  0
LINE
  5
425
100
AcDbEntity
  8
0
100
AcDbLine
 62
     2
  6
CONTINUOUS
 10
573.878223211292
 20
306.900001000000
 11
565.500000000000
 21
306.900001000000
  0
LINE
  5
426
100
AcDbEntity
  8
0
100
AcDbLine
 62
     2
  6
CONTINUOUS
 10
577.739977874213
 20
308.500001000000
 11
577.950000000000
 21
308.500001000000
  0
LINE
  5
427
100
AcDbEntity
  8
0
100
AcDbLine
 62
     2
  6
CONTINUOUS
 10
572.760028125787
 20
308.500001000000
 11
567.100000000000
 21
308.500001000000
  0
LINE
  5
428
100
AcDbEntity
  8
0
100
AcDbLine
 62
     2
  6
CONTINUOUS
 10
567.300000000000
 20
308.700001000000
 11
564.134314575051
 21
305.534315575051
  0
LINE
  5
429
100
AcDbEntity
  8
0
100
AcDbLine
 62
     2
  6
CONTINUOUS
 10
567.465339046268
 20
308.700001000000
 11
567.300000000000
 21
308.700001000000
  0
LINE
  5
42A
100
AcDbEntity
  8
0
100
AcDbLine
 62
     2
  6
CONTINUOUS
 10
578.250000000000
 20
308.700001000000
 11
567.465339046268
 21
308.700001000000
  0
LINE
  5
42B
100
AcDbEntity
  8
0
100
AcDbLine
 62
     2
  6
CONTINUOUS
 10
531.224769132100
 20
306.900001000000
 11
536.775230867900
 21
306.900001000000
  0
LINE
  5
42C
100
AcDbEntity
  8
0
100
AcDbLine
 62
     2
  6
CONTINUOUS
 10
536.775230867900
 20
306.900001000000
 11
563.237258300203
 21
306.900001000000
  0
LINE
  5
42D
100
AcDbEntity
  8
0
100
AcDbLine
 62
     2
  6
CONTINUOUS
 10
495.239977874213
 20
308.500001000000
 11
500.900000000000
 21
308.500001000000
  0
LINE
  5
42E
100
AcDbEntity
  8
0
100
AcDbLine
 62
     2
  6
CONTINUOUS
 10
490.260028125787
 20
308.500001000000
 11
490.050000000000
 21
308.500001000000
  0
LINE
  5
42F
100
AcDbEntity
  8
0
100
AcDbLine
 62
     2
  6
CONTINUOUS
 10
500.534660953732
 20
308.700001000000
 11
489.750000000000
 21
308.700001000000
  0
ARC
  5
430
100
AcDbEntity
  8
0
100
AcDbCircle
 62
     2
  6
CONTINUOUS
 10
490.050000000000
 20
307.700001000000
 40
0.800000000000
100
AcDbArc
 50
89.999999995158
 51
179.999999990300
  0
ARC
  5
431
100
AcDbEntity
  8
0
100
AcDbCircle
 62
     2
  6
CONTINUOUS
 10
490.050000000000
 20
307.700001000000
 40
0.800000000000
100
AcDbArc
 50
179.999999990300
 51
269.999999985441
  0
ARC
  5
432
100
AcDbEntity
  8
0
100
AcDbCircle
 62
     2
  6
CONTINUOUS
 10
490.050000000000
 20
307.700001000000
 40
0.800000000000
100
AcDbArc
 50
89.999999995158
 51
179.999999990300
  0
ARC
  5
433
100
AcDbEntity
  8
0
100
AcDbCircle
 62
     2
  6
CONTINUOUS
 10
490.050000000000
 20
307.700001000000
 40
0.800000000000
100
AcDbArc
 50
179.999999990300
 51
269.999999985441
  0
LINE
  5
434
100
AcDbEntity
  8
0
100
AcDbLine
 62
     2
  6
CONTINUOUS
 10
548.509103385427
 20
310.300001000000
 11
489.750000000000
 21
310.300001000000
  0
LINE
  5
435
100
AcDbEntity
  8
0
100
AcDbLine
 62
     2
  6
CONTINUOUS
 10
490.050000000000
 20
306.900001000000
 11
502.500000000000
 21
306.900001000000
  0
LINE
  5
436
100
AcDbEntity
  8
0
100
AcDbLine
 62
     2
  6
CONTINUOUS
 10
494.121782788708
 20
306.900001000000
 11
502.500000000000
 21
306.900001000000
  0
LINE
  5
437
100
AcDbEntity
  8
0
100
AcDbLine
 62
     2
  6
CONTINUOUS
 10
491.378223211292
 20
306.900001000000
 11
490.050000000000
 21
306.900001000000
  0
LINE
  5
438
100
AcDbEntity
  8
0
100
AcDbLine
 62
     3
  6
CONTINUOUS
 10
484.640000000000
 20
369.500001000000
 11
583.360000000000
 21
369.500001000000
  0
LINE
  5
439
100
AcDbEntity
  8
0
100
AcDbLine
 62
     3
  6
CONTINUOUS
 10
580.760000000000
 20
335.500001000000
 11
580.760000000000
 21
369.500001000000
  0
LINE
  5
43A
100
AcDbEntity
  8
0
100
AcDbLine
 62
     3
  6
CONTINUOUS
 10
582.760000000000
 20
335.500001000000
 11
582.760000000000
 21
369.500001000000
  0
LINE
  5
43B
100
AcDbEntity
  8
0
100
AcDbLine
 62
     3
  6
CONTINUOUS
 10
584.000000000000
 20
370.608514000000
 11
584.000000000000
 21
375.500001000000
  0
LINE
  5
43C
100
AcDbEntity
  8
0
100
AcDbLine
 62
     3
  6
CONTINUOUS
 10
583.360000000000
 20
369.500001000000
 11
584.000000000000
 21
370.608514000000
  0
LINE
  5
43D
100
AcDbEntity
  8
0
100
AcDbLine
 62
     3
  6
CONTINUOUS
 10
484.000000000000
 20
370.608514000000
 11
484.000000000000
 21
375.500001000000
  0
LINE
  5
43E
100
AcDbEntity
  8
0
100
AcDbLine
 62
     3
  6
CONTINUOUS
 10
484.640000000000
 20
369.500001000000
 11
484.000000000000
 21
370.608514000000
  0
LINE
  5
43F
100
AcDbEntity
  8
0
100
AcDbLine
 62
     0
  6
CENTER2
 48
10.0
 10
547.670640900731
 20
377.500001000000
 11
557.598001793027
 21
377.500001000000
  0
LINE
  5
440
100
AcDbEntity
  8
0
100
AcDbLine
 62
     0
  6
CENTER2
 48
10.0
 10
550.442116361050
 20
377.375001000000
 11
554.833040608093
 21
377.375001000000
  0
LINE
  5
441
100
AcDbEntity
  8
0
100
AcDbLine
 62
     0
  6
CENTER2
 48
10.0
 10
552.750000000000
 20
382.140785045922
 11
552.750000000000
 21
372.872649008168
  0
SPLINE
  5
442
100
AcDbEntity
  8
0
100
AcDbSpline
 62
     0
  6
CONTINUOUS
210
0.000000000000
220
0.000000000000
230
1.000000000000
 70
     8
 71
     3
 72
     0
 73
     0
 74
     3
 42
0.000000100000
 43
0.000000100000
 44
0.000000000000
 11
512.161374987313
 21
470.445912633223
 11
513.676125632599
 21
471.766316156834
 11
515.161374987313
 21
470.445912633223
  0
SPLINE
  5
443
100
AcDbEntity
  8
0
100
AcDbSpline
 62
     0
  6
CONTINUOUS
210
0.000000000000
220
0.000000000000
230
1.000000000000
 70
     8
 71
     3
 72
     0
 73
     0
 74
     3
 42
0.000000100000
 43
0.000000100000
 44
0.000000000000
 11
512.161374987313
 21
468.945912633223
 11
513.676125632599
 21
470.266316156834
 11
515.161374987313
 21
468.945912633223
  0
SPLINE
  5
444
100
AcDbEntity
  8
0
100
AcDbSpline
 62
     0
  6
CONTINUOUS
210
0.000000000000
220
0.000000000000
230
1.000000000000
 70
     8
 71
     3
 72
     0
 73
     0
 74
     3
 42
0.000000100000
 43
0.000000100000
 44
0.000000000000
 11
518.161374987313
 21
468.945912633223
 11
516.706810947508
 21
467.617449464276
 11
515.203400122002
 21
468.906087314710
  0
SPLINE
  5
445
100
AcDbEntity
  8
0
100
AcDbSpline
 62
     0
  6
CONTINUOUS
210
0.000000000000
220
0.000000000000
230
1.000000000000
 70
     8
 71
     3
 72
     0
 73
     0
 74
     3
 42
0.000000100000
 43
0.000000100000
 44
0.000000000000
 11
518.161374987313
 21
470.445912633223
 11
516.706810947508
 21
469.117449464276
 11
515.203400122002
 21
470.406087314710
  0
SPLINE
  5
446
100
AcDbEntity
  8
0
100
AcDbSpline
 62
     0
  6
CONTINUOUS
210
0.000000000000
220
0.000000000000
230
1.000000000000
 70
     8
 71
     3
 72
     0
 73
     0
 74
     3
 42
0.000000100000
 43
0.000000100000
 44
0.000000000000
 11
549.661374987313
 21
470.445912633223
 11
551.176125632599
 21
471.766316156834
 11
552.661374987313
 21
470.445912633223
  0
SPLINE
  5
447
100
AcDbEntity
  8
0
100
AcDbSpline
 62
     0
  6
CONTINUOUS
210
0.000000000000
220
0.000000000000
230
1.000000000000
 70
     8
 71
     3
 72
     0
 73
     0
 74
     3
 42
0.000000100000
 43
0.000000100000
 44
0.000000000000
 11
549.661374987313
 21
468.945912633223
 11
551.176125632599
 21
470.266316156834
 11
552.661374987313
 21
468.945912633223
  0
SPLINE
  5
448
100
AcDbEntity
  8
0
100
AcDbSpline
 62
     0
  6
CONTINUOUS
210
0.000000000000
220
0.000000000000
230
1.000000000000
 70
     8
 71
     3
 72
     0
 73
     0
 74
     3
 42
0.000000100000
 43
0.000000100000
 44
0.000000000000
 11
555.661374987313
 21
468.945912633223
 11
554.206810947508
 21
467.617449464276
 11
552.703400122002
 21
468.906087314710
  0
SPLINE
  5
449
100
AcDbEntity
  8
0
100
AcDbSpline
 62
     0
  6
CONTINUOUS
210
0.000000000000
220
0.000000000000
230
1.000000000000
 70
     8
 71
     3
 72
     0
 73
     0
 74
     3
 42
0.000000100000
 43
0.000000100000
 44
0.000000000000
 11
555.661374987313
 21
470.445912633223
 11
554.206810947508
 21
469.117449464276
 11
552.703400122002
 21
470.406087314710
  0
TEXT
  5
44A
100
AcDbEntity
  8
0
100
AcDbText
 62
     0
  6
CONTINUOUS
 10
566.787576352428
 20
411.243797370923
 40
6.000000000000
 41
1.000000000000
 50
0.000000000000
  1
%%c2.4温測用穴　L=(25)
100
AcDbText
  0
LEADER
  5
44B
100
AcDbEntity
  8
0
100
AcDbLeader
 62
     3
  6
CONTINUOUS
  3
DIM1
 76
     3
 10
534.333031
 20
385.280161
 10
557.242122
 20
408.189252
 10
651.494088
 20
408.189252
 77
     3
1001
ACAD
1000
DSTYLE
1002
{
1070
     6
1000
_OPEN
1070
    41
1040
3.000000000000
1002
}
  0
SPLINE
  5
44C
100
AcDbEntity
  8
0
100
AcDbSpline
 62
     0
  6
CONTINUOUS
210
0.000000000000
220
0.000000000000
230
1.000000000000
 70
     8
 71
     3
 72
     0
 73
     0
 74
     3
 42
0.000000100000
 43
0.000000100000
 44
0.000000000000
 11
648.945911633223
 21
380.463626012687
 11
650.266315156834
 21
378.948875367401
 11
648.945911633223
 21
377.463626012687
  0
SPLINE
  5
44D
100
AcDbEntity
  8
0
100
AcDbSpline
 62
     0
  6
CONTINUOUS
210
0.000000000000
220
0.000000000000
230
1.000000000000
 70
     8
 71
     3
 72
     0
 73
     0
 74
     3
 42
0.000000100000
 43
0.000000100000
 44
0.000000000000
 11
647.445911633223
 21
380.463626012687
 11
648.766315156834
 21
378.948875367401
 11
647.445911633223
 21
377.463626012687
  0
SPLINE
  5
44E
100
AcDbEntity
  8
0
100
AcDbSpline
 62
     0
  6
CONTINUOUS
210
0.000000000000
220
0.000000000000
230
1.000000000000
 70
     8
 71
     3
 72
     0
 73
     0
 74
     3
 42
0.000000100000
 43
0.000000100000
 44
0.000000000000
 11
647.445911633223
 21
374.463626012687
 11
646.117448464277
 21
375.918190052492
 11
647.406086314710
 21
377.421600877998
  0
SPLINE
  5
44F
100
AcDbEntity
  8
0
100
AcDbSpline
 62
     0
  6
CONTINUOUS
210
0.000000000000
220
0.000000000000
230
1.000000000000
 70
     8
 71
     3
 72
     0
 73
     0
 74
     3
 42
0.000000100000
 43
0.000000100000
 44
0.000000000000
 11
648.945911633223
 21
374.463626012687
 11
647.617448464277
 21
375.918190052492
 11
648.906086314710
 21
377.421600877998
  0
TEXT
  5
450
100
AcDbEntity
  8
0
100
AcDbText
 62
     0
  6
CONTINUOUS
 10
696.709806114435
 20
411.224595384432
 40
6.000000000000
 41
1.000000000000
 50
0.000000000000
  1
4-M3 L=4.5
100
AcDbText
  0
LEADER
  5
451
100
AcDbEntity
  8
0
100
AcDbLeader
 62
     3
  6
CONTINUOUS
  3
DIM1
 76
     3
 10
740.149533
 20
372.749402
 10
762.004911
 20
410.604028
 10
693.400101
 20
410.604028
 77
     3
1001
ACAD
1000
DSTYLE
1002
{
1070
     6
1000
_OPEN
1070
    41
1040
3.000000000000
1002
}
  0
TEXT
  5
452
100
AcDbEntity
  8
0
100
AcDbText
 62
     0
  6
CONTINUOUS
 10
601.027179300785
 20
462.420801480888
 40
6.000000000000
 41
1.000000000000
 50
0.000000000000
  1
DCファン固定用ネジ
100
AcDbText
  0
LEADER
  5
453
100
AcDbEntity
  8
0
100
AcDbLeader
 62
     3
  6
CONTINUOUS
  3
DIM1
 76
     3
 10
577.108747
 20
482.485815
 10
598.208038
 20
461.386525
 10
666.884160
 20
461.386525
 77
     3
1001
ACAD
1000
DSTYLE
1002
{
1070
     6
1000
_OPEN
1070
    41
1040
3.000000000000
1002
}
  0
LEADER
  5
454
100
AcDbEntity
  8
0
100
AcDbLeader
 62
     3
  6
CONTINUOUS
  3
DIM1
 76
     3
 10
556.559080
 20
547.630031
 10
587.587456
 20
578.658407
 10
646.127628
 20
578.658407
 77
     3
1001
ACAD
1000
DSTYLE
1002
{
1070
     6
1000
_OPEN
1070
    41
1040
3.000000000000
1002
}
  0
TEXT
  5
455
100
AcDbEntity
  8
0
100
AcDbText
 62
     0
  6
CONTINUOUS
 10
590.045807080689
 20
580.305512130260
 40
6.000000000000
 41
1.000000000000
 50
0.000000000000
  1
4-M4 L=4
100
AcDbText
  0
TEXT
  5
456
100
AcDbEntity
  8
0
100
AcDbText
 62
     0
  6
CONTINUOUS
 10
756.809088766575
 20
190.463635206223
 40
4.000000000000
 41
1.000000000000
 50
0.000000000000
  1
1
100
AcDbText
  0
TEXT
  5
457
100
AcDbEntity
  8
0
100
AcDbText
 62
     0
  6
CONTINUOUS
 10
748.409065306187
 20
190.463635206223
 40
4.000000000000
 41
1.000000000000
 50
0.000000000000
  1
1
100
AcDbText
  0
TEXT
  5
458
100
AcDbEntity
  8
0
100
AcDbText
 62
     0
  6
CONTINUOUS
 10
730.368105828762
 20
190.463635206223
 40
4.000000000000
 41
1.000000000000
 50
0.000000000000
  1
1
100
AcDbText
  0
TEXT
  5
459
100
AcDbEntity
  8
0
100
AcDbText
 62
     0
  6
CENTER2
 48
10.0
 10
695.081908926368
 20
149.942820206285
 40
3.000000000000
 41
1.000000000000
 50
0.000000000000
  1
4321
100
AcDbText
  0
LINE
  5
45A
100
AcDbEntity
  8
0
100
AcDbLine
 62
     1
  6
CONTINUOUS
 10
648.000000000000
 20
191.000000000000
 11
657.000000000000
 21
191.000000000000
  0
LINE
  5
45B
100
AcDbEntity
  8
0
100
AcDbLine
 62
     1
  6
CONTINUOUS
 10
630.000000000000
 20
170.000000000000
 11
630.000000000000
 21
197.000000000000
  0
LINE
  5
45C
100
AcDbEntity
  8
0
100
AcDbLine
 62
     1
  6
CONTINUOUS
 10
630.000000000000
 20
191.000000000000
 11
630.000000000000
 21
188.000000000000
  0
LINE
  5
45D
100
AcDbEntity
  8
0
100
AcDbLine
 62
     1
  6
CONTINUOUS
 10
630.000000000000
 20
191.000000000000
 11
609.000000000000
 21
191.000000000000
  0
LINE
  5
45E
100
AcDbEntity
  8
0
100
AcDbLine
 62
     1
  6
CONTINUOUS
 10
621.000000000000
 20
176.000000000000
 11
621.000000000000
 21
170.000000000000
  0
LINE
  5
45F
100
AcDbEntity
  8
0
100
AcDbLine
 62
     1
  6
CONTINUOUS
 10
609.000000000000
 20
188.000000000000
 11
684.000000000000
 21
188.000000000000
  0
LINE
  5
460
100
AcDbEntity
  8
0
100
AcDbLine
 62
     1
  6
CONTINUOUS
 10
609.000000000000
 20
185.000000000000
 11
684.000000000000
 21
185.000000000000
  0
LINE
  5
461
100
AcDbEntity
  8
0
100
AcDbLine
 62
     1
  6
CONTINUOUS
 10
609.000000000000
 20
182.000000000000
 11
684.000000000000
 21
182.000000000000
  0
LINE
  5
462
100
AcDbEntity
  8
0
100
AcDbLine
 62
     1
  6
CONTINUOUS
 10
609.000000000000
 20
179.000000000000
 11
684.000000000000
 21
179.000000000000
  0
LINE
  5
463
100
AcDbEntity
  8
0
100
AcDbLine
 62
     1
  6
CONTINUOUS
 10
639.000000000000
 20
176.000000000000
 11
639.000000000000
 21
197.000000000000
  0
LINE
  5
464
100
AcDbEntity
  8
0
100
AcDbLine
 62
     1
  6
CONTINUOUS
 10
666.000000000000
 20
191.000000000000
 11
675.000000000000
 21
191.000000000000
  0
LINE
  5
465
100
AcDbEntity
  8
0
100
AcDbLine
 62
     1
  6
CONTINUOUS
 10
657.000000000000
 20
176.000000000000
 11
657.000000000000
 21
197.000000000000
  0
LINE
  5
466
100
AcDbEntity
  8
0
100
AcDbLine
 62
     1
  6
CONTINUOUS
 10
648.000000000000
 20
176.000000000000
 11
648.000000000000
 21
197.000000000000
  0
LINE
  5
467
100
AcDbEntity
  8
0
100
AcDbLine
 62
     1
  6
CONTINUOUS
 10
609.000000000000
 20
194.000000000000
 11
684.000000000000
 21
194.000000000000
  0
LINE
  5
468
100
AcDbEntity
  8
0
100
AcDbLine
 62
     1
  6
CONTINUOUS
 10
609.000000000000
 20
170.000000000000
 11
609.000000000000
 21
197.000000000000
  0
LINE
  5
469
100
AcDbEntity
  8
0
100
AcDbLine
 62
     1
  6
CONTINUOUS
 10
609.000000000000
 20
176.000000000000
 11
684.000000000000
 21
176.000000000000
  0
LINE
  5
46A
100
AcDbEntity
  8
0
100
AcDbLine
 62
     1
  6
CONTINUOUS
 10
621.000000000000
 20
173.000000000000
 11
684.000000000000
 21
173.000000000000
  0
LINE
  5
46B
100
AcDbEntity
  8
0
100
AcDbLine
 62
     1
  6
CONTINUOUS
 10
666.000000000000
 20
170.000000000000
 11
666.000000000000
 21
197.000000000000
  0
LINE
  5
46C
100
AcDbEntity
  8
0
100
AcDbLine
 62
     1
  6
CONTINUOUS
 10
675.000000000000
 20
170.000000000000
 11
675.000000000000
 21
197.000000000000
  0
LINE
  5
46D
100
AcDbEntity
  8
0
100
AcDbLine
 62
     2
  6
CONTINUOUS
 10
514.018798828125
 20
178.429740905762
 11
510.818801879883
 21
173.949737548828
  0
LINE
  5
46E
100
AcDbEntity
  8
0
100
AcDbLine
 62
     2
  6
CONTINUOUS
 10
510.818801879883
 20
173.949737548828
 11
517.218795776367
 21
173.949737548828
  0
LINE
  5
46F
100
AcDbEntity
  8
0
100
AcDbLine
 62
     2
  6
CONTINUOUS
 10
517.218795776367
 20
173.949737548828
 11
514.018798828125
 21
178.429740905762
  0
LINE
  5
470
100
AcDbEntity
  8
0
100
AcDbLine
 62
     2
  6
CONTINUOUS
 10
510.818801879883
 20
191.949737548828
 11
517.218795776367
 21
191.949737548828
  0
LINE
  5
471
100
AcDbEntity
  8
0
100
AcDbLine
 62
     2
  6
CONTINUOUS
 10
514.018798828125
 20
196.429740905762
 11
510.818801879883
 21
191.949737548828
  0
LINE
  5
472
100
AcDbEntity
  8
0
100
AcDbLine
 62
     2
  6
CONTINUOUS
 10
517.218795776367
 20
191.949737548828
 11
514.018798828125
 21
196.429740905762
  0
LINE
  5
473
100
AcDbEntity
  8
0
100
AcDbLine
 62
     2
  6
CONTINUOUS
 10
510.818801879883
 20
185.949737548828
 11
517.218795776367
 21
185.949737548828
  0
LINE
  5
474
100
AcDbEntity
  8
0
100
AcDbLine
 62
     2
  6
CONTINUOUS
 10
514.018798828125
 20
190.429740905762
 11
510.818801879883
 21
185.949737548828
  0
LINE
  5
475
100
AcDbEntity
  8
0
100
AcDbLine
 62
     2
  6
CONTINUOUS
 10
517.218795776367
 20
185.949737548828
 11
514.018798828125
 21
190.429740905762
  0
LINE
  5
476
100
AcDbEntity
  8
0
100
AcDbLine
 62
     2
  6
CONTINUOUS
 10
510.818801879883
 20
179.949737548828
 11
517.218795776367
 21
179.949737548828
  0
LINE
  5
477
100
AcDbEntity
  8
0
100
AcDbLine
 62
     0
  6
CONTINUOUS
 10
604.000000000000
 20
191.000000000000
 11
509.000000000000
 21
191.000000000000
  0
LINE
  5
478
100
AcDbEntity
  8
0
100
AcDbLine
 62
     3
  6
CONTINUOUS
 10
604.000000000000
 20
197.000000000000
 11
509.000000000000
 21
197.000000000000
  0
LINE
  5
479
100
AcDbEntity
  8
0
100
AcDbLine
 62
     0
  6
CONTINUOUS
 10
604.000000000000
 20
185.000000000000
 11
509.000000000000
 21
185.000000000000
  0
LINE
  5
47A
100
AcDbEntity
  8
0
100
AcDbLine
 62
     2
  6
CONTINUOUS
 10
514.018798828125
 20
184.429740905762
 11
510.818801879883
 21
179.949737548828
  0
LINE
  5
47B
100
AcDbEntity
  8
0
100
AcDbLine
 62
     2
  6
CONTINUOUS
 10
517.218795776367
 20
179.949737548828
 11
514.018798828125
 21
184.429740905762
  0
LINE
  5
47C
100
AcDbEntity
  8
0
100
AcDbLine
 62
     0
  6
CONTINUOUS
 10
604.000000000000
 20
179.000000000000
 11
509.000000000000
 21
179.000000000000
  0
LINE
  5
47D
100
AcDbEntity
  8
0
100
AcDbLine
 62
     3
  6
CONTINUOUS
 10
509.000000000000
 20
197.000000000000
 11
509.000000000000
 21
148.000000000000
  0
LINE
  5
47E
100
AcDbEntity
  8
0
100
AcDbLine
 62
     2
  6
CONTINUOUS
 10
510.818801879883
 20
167.949737548828
 11
517.218795776367
 21
167.949737548828
  0
LINE
  5
47F
100
AcDbEntity
  8
0
100
AcDbLine
 62
     2
  6
CONTINUOUS
 10
514.018798828125
 20
172.429740905762
 11
510.818801879883
 21
167.949737548828
  0
LINE
  5
480
100
AcDbEntity
  8
0
100
AcDbLine
 62
     2
  6
CONTINUOUS
 10
517.218795776367
 20
167.949737548828
 11
514.018798828125
 21
172.429740905762
  0
LINE
  5
481
100
AcDbEntity
  8
0
100
AcDbLine
 62
     2
  6
CONTINUOUS
 10
510.818801879883
 20
161.949737548828
 11
517.218795776367
 21
161.949737548828
  0
LINE
  5
482
100
AcDbEntity
  8
0
100
AcDbLine
 62
     2
  6
CONTINUOUS
 10
514.018798828125
 20
166.429740905762
 11
510.818801879883
 21
161.949737548828
  0
LINE
  5
483
100
AcDbEntity
  8
0
100
AcDbLine
 62
     2
  6
CONTINUOUS
 10
517.218795776367
 20
161.949737548828
 11
514.018798828125
 21
166.429740905762
  0
LINE
  5
484
100
AcDbEntity
  8
0
100
AcDbLine
 62
     0
  6
CONTINUOUS
 10
604.000000000000
 20
173.000000000000
 11
509.000000000000
 21
173.000000000000
  0
LINE
  5
485
100
AcDbEntity
  8
0
100
AcDbLine
 62
     0
  6
CONTINUOUS
 10
604.000000000000
 20
167.000000000000
 11
509.000000000000
 21
167.000000000000
  0
LINE
  5
486
100
AcDbEntity
  8
0
100
AcDbLine
 62
     0
  6
CONTINUOUS
 10
604.000000000000
 20
161.000000000000
 11
509.000000000000
 21
161.000000000000
  0
LINE
  5
487
100
AcDbEntity
  8
0
100
AcDbLine
 62
     2
  6
CONTINUOUS
 10
517.218795776367
 20
155.949737548828
 11
514.018798828125
 21
160.429740905762
  0
LINE
  5
488
100
AcDbEntity
  8
0
100
AcDbLine
 62
     2
  6
CONTINUOUS
 10
510.818801879883
 20
155.949737548828
 11
517.218795776367
 21
155.949737548828
  0
LINE
  5
489
100
AcDbEntity
  8
0
100
AcDbLine
 62
     2
  6
CONTINUOUS
 10
514.018798828125
 20
160.429740905762
 11
510.818801879883
 21
155.949737548828
  0
LINE
  5
48A
100
AcDbEntity
  8
0
100
AcDbLine
 62
     0
  6
CONTINUOUS
 10
773.500000000000
 20
160.000000000000
 11
773.500000000000
 21
148.000000000000
  0
LINE
  5
48B
100
AcDbEntity
  8
0
100
AcDbLine
 62
     0
  6
CONTINUOUS
 10
677.000000000000
 20
150.000000000000
 11
677.000000000000
 21
148.000000000000
  0
LINE
  5
48C
100
AcDbEntity
  8
0
100
AcDbLine
 62
     0
  6
CONTINUOUS
 10
670.500000000000
 20
150.000000000000
 11
670.500000000000
 21
148.000000000000
  0
LINE
  5
48D
100
AcDbEntity
  8
0
100
AcDbLine
 62
     0
  6
CONTINUOUS
 10
657.000000000000
 20
150.000000000000
 11
657.000000000000
 21
148.000000000000
  0
LINE
  5
48E
100
AcDbEntity
  8
0
100
AcDbLine
 62
     0
  6
CONTINUOUS
 10
650.500000000000
 20
150.000000000000
 11
650.500000000000
 21
148.000000000000
  0
LINE
  5
48F
100
AcDbEntity
  8
0
100
AcDbLine
 62
     0
  6
CONTINUOUS
 10
637.000000000000
 20
150.000000000000
 11
637.000000000000
 21
148.000000000000
  0
LINE
  5
490
100
AcDbEntity
  8
0
100
AcDbLine
 62
     0
  6
CONTINUOUS
 10
630.500000000000
 20
150.000000000000
 11
630.500000000000
 21
148.000000000000
  0
LINE
  5
491
100
AcDbEntity
  8
0
100
AcDbLine
 62
     0
  6
CONTINUOUS
 10
617.000000000000
 20
150.000000000000
 11
617.000000000000
 21
148.000000000000
  0
LINE
  5
492
100
AcDbEntity
  8
0
100
AcDbLine
 62
     0
  6
CONTINUOUS
 10
610.500000000000
 20
150.000000000000
 11
610.500000000000
 21
148.000000000000
  0
LINE
  5
493
100
AcDbEntity
  8
0
100
AcDbLine
 62
     0
  6
HIDDEN
 48
10.0
 10
729.000000000000
 20
179.500000000000
 11
779.000000000000
 21
179.500000000000
  0
LINE
  5
494
100
AcDbEntity
  8
0
100
AcDbLine
 62
     3
  6
CONTINUOUS
 10
774.000000000000
 20
190.500000000000
 11
782.000000000000
 21
188.500000000000
  0
LINE
  5
495
100
AcDbEntity
  8
0
100
AcDbLine
 62
     3
  6
CONTINUOUS
 10
774.000000000000
 20
193.500000000000
 11
782.000000000000
 21
195.500000000000
  0
LINE
  5
496
100
AcDbEntity
  8
0
100
AcDbLine
 62
     3
  6
CONTINUOUS
 10
774.000000000000
 20
190.500000000000
 11
774.000000000000
 21
193.500000000000
  0
LINE
  5
497
100
AcDbEntity
  8
0
100
AcDbLine
 62
     3
  6
CONTINUOUS
 10
782.000000000000
 20
188.500000000000
 11
782.000000000000
 21
195.500000000000
  0
CIRCLE
  5
498
100
AcDbEntity
  8
0
100
AcDbCircle
 62
     3
  6
CONTINUOUS
 10
769.000000000000
 20
192.000000000000
 40
3.500000000000
  0
CIRCLE
  5
499
100
AcDbEntity
  8
0
100
AcDbCircle
 62
     3
  6
CONTINUOUS
 10
769.000000000000
 20
192.000000000000
 40
1.500000000000
  0
LINE
  5
49A
100
AcDbEntity
  8
0
100
AcDbLine
 62
     2
  6
CONTINUOUS
 10
769.000000000000
 20
187.500000000000
 11
769.000000000000
 21
196.500000000000
  0
LINE
  5
49B
100
AcDbEntity
  8
0
100
AcDbLine
 62
     2
  6
CONTINUOUS
 10
764.500000000000
 20
192.000000000000
 11
783.500000000000
 21
192.000000000000
  0
LINE
  5
49C
100
AcDbEntity
  8
0
100
AcDbLine
 62
     0
  6
CONTINUOUS
 10
744.000000000000
 20
187.000000000000
 11
744.000000000000
 21
197.000000000000
  0
LINE
  5
49D
100
AcDbEntity
  8
0
100
AcDbLine
 62
     0
  6
CONTINUOUS
 10
691.000000000000
 20
170.000000000000
 11
691.000000000000
 21
187.000000000000
  0
LINE
  5
49E
100
AcDbEntity
  8
0
100
AcDbLine
 62
     0
  6
CONTINUOUS
 10
691.000000000000
 20
155.000000000000
 11
691.000000000000
 21
148.000000000000
  0
LINE
  5
49F
100
AcDbEntity
  8
0
100
AcDbLine
 62
     0
  6
CONTINUOUS
 10
689.000000000000
 20
155.000000000000
 11
689.000000000000
 21
170.000000000000
  0
LINE
  5
4A0
100
AcDbEntity
  8
0
100
AcDbLine
 62
     0
  6
CONTINUOUS
 10
689.000000000000
 20
187.000000000000
 11
689.000000000000
 21
197.000000000000
  0
LINE
  5
4A1
100
AcDbEntity
  8
0
100
AcDbLine
 62
     0
  6
CONTINUOUS
 10
724.000000000000
 20
197.000000000000
 11
724.000000000000
 21
148.000000000000
  0
LINE
  5
4A2
100
AcDbEntity
  8
0
100
AcDbLine
 62
     3
  6
CONTINUOUS
 10
764.000000000000
 20
187.000000000000
 11
764.000000000000
 21
197.000000000000
  0
LINE
  5
4A3
100
AcDbEntity
  8
0
100
AcDbLine
 62
     3
  6
CONTINUOUS
 10
739.000000000000
 20
187.000000000000
 11
739.000000000000
 21
197.000000000000
  0
LINE
  5
4A4
100
AcDbEntity
  8
0
100
AcDbLine
 62
     3
  6
CONTINUOUS
 10
604.000000000000
 20
197.000000000000
 11
784.000000000000
 21
197.000000000000
  0
LINE
  5
4A5
100
AcDbEntity
  8
0
100
AcDbLine
 62
     3
  6
CONTINUOUS
 10
719.000000000000
 20
172.000000000000
 11
784.000000000000
 21
172.000000000000
  0
LINE
  5
4A6
100
AcDbEntity
  8
0
100
AcDbLine
 62
     3
  6
CONTINUOUS
 10
719.000000000000
 20
160.000000000000
 11
784.000000000000
 21
160.000000000000
  0
LINE
  5
4A7
100
AcDbEntity
  8
0
100
AcDbLine
 62
     3
  6
CONTINUOUS
 10
684.000000000000
 20
187.000000000000
 11
784.000000000000
 21
187.000000000000
  0
LINE
  5
4A8
100
AcDbEntity
  8
0
100
AcDbLine
 62
     3
  6
CONTINUOUS
 10
719.000000000000
 20
179.000000000000
 11
684.000000000000
 21
179.000000000000
  0
LINE
  5
4A9
100
AcDbEntity
  8
0
100
AcDbLine
 62
     3
  6
CONTINUOUS
 10
719.000000000000
 20
170.000000000000
 11
684.000000000000
 21
170.000000000000
  0
LINE
  5
4AA
100
AcDbEntity
  8
0
100
AcDbLine
 62
     3
  6
CONTINUOUS
 10
719.000000000000
 20
155.000000000000
 11
684.000000000000
 21
155.000000000000
  0
LINE
  5
4AB
100
AcDbEntity
  8
0
100
AcDbLine
 62
     0
  6
CONTINUOUS
 10
519.000000000000
 20
197.000000000000
 11
519.000000000000
 21
148.000000000000
  0
LINE
  5
4AC
100
AcDbEntity
  8
0
100
AcDbLine
 62
     0
  6
CONTINUOUS
 10
569.000000000000
 20
197.000000000000
 11
569.000000000000
 21
148.000000000000
  0
LINE
  5
4AD
100
AcDbEntity
  8
0
100
AcDbLine
 62
     0
  6
CONTINUOUS
 10
579.000000000000
 20
197.000000000000
 11
579.000000000000
 21
148.000000000000
  0
LINE
  5
4AE
100
AcDbEntity
  8
0
100
AcDbLine
 62
     0
  6
CONTINUOUS
 10
589.000000000000
 20
197.000000000000
 11
589.000000000000
 21
148.000000000000
  0
LINE
  5
4AF
100
AcDbEntity
  8
0
100
AcDbLine
 62
     3
  6
CONTINUOUS
 10
604.000000000000
 20
170.000000000000
 11
684.000000000000
 21
170.000000000000
  0
LINE
  5
4B0
100
AcDbEntity
  8
0
100
AcDbLine
 62
     0
  6
CONTINUOUS
 10
604.000000000000
 20
165.000000000000
 11
684.000000000000
 21
165.000000000000
  0
LINE
  5
4B1
100
AcDbEntity
  8
0
100
AcDbLine
 62
     0
  6
CONTINUOUS
 10
604.000000000000
 20
153.000000000000
 11
684.000000000000
 21
153.000000000000
  0
LINE
  5
4B2
100
AcDbEntity
  8
0
100
AcDbLine
 62
     0
  6
CONTINUOUS
 10
664.000000000000
 20
170.000000000000
 11
664.000000000000
 21
148.000000000000
  0
LINE
  5
4B3
100
AcDbEntity
  8
0
100
AcDbLine
 62
     0
  6
CONTINUOUS
 10
644.000000000000
 20
170.000000000000
 11
644.000000000000
 21
148.000000000000
  0
LINE
  5
4B4
100
AcDbEntity
  8
0
100
AcDbLine
 62
     0
  6
CONTINUOUS
 10
624.000000000000
 20
170.000000000000
 11
624.000000000000
 21
148.000000000000
  0
LINE
  5
4B5
100
AcDbEntity
  8
0
100
AcDbLine
 62
     0
  6
CONTINUOUS
 10
604.000000000000
 20
155.000000000000
 11
509.000000000000
 21
155.000000000000
  0
LINE
  5
4B6
100
AcDbEntity
  8
0
100
AcDbLine
 62
     3
  6
CONTINUOUS
 10
719.000000000000
 20
197.000000000000
 11
719.000000000000
 21
148.000000000000
  0
LINE
  5
4B7
100
AcDbEntity
  8
0
100
AcDbLine
 62
     3
  6
CONTINUOUS
 10
684.000000000000
 20
197.000000000000
 11
684.000000000000
 21
148.000000000000
  0
LINE
  5
4B8
100
AcDbEntity
  8
0
100
AcDbLine
 62
     3
  6
CONTINUOUS
 10
604.000000000000
 20
197.000000000000
 11
604.000000000000
 21
148.000000000000
  0
LINE
  5
4B9
100
AcDbEntity
  8
0
100
AcDbLine
 62
     2
  6
CONTINUOUS
 10
778.246773348004
 20
145.273527280316
 11
778.561773348003
 21
146.034177936241
  0
LINE
  5
4BA
100
AcDbEntity
  8
0
100
AcDbLine
 62
     2
  6
CONTINUOUS
 10
777.835549232084
 20
145.273527280316
 11
778.537439591281
 21
145.975417639513
  0
LINE
  5
4BB
100
AcDbEntity
  8
0
100
AcDbLine
 62
     2
  6
CONTINUOUS
 10
777.568262868795
 20
145.273527280316
 11
778.328913524721
 21
146.034177936241
  0
LINE
  5
4BC
100
AcDbEntity
  8
0
100
AcDbLine
 62
     2
  6
CONTINUOUS
 10
777.434619687151
 20
145.273527280316
 11
778.195270343076
 21
146.034177936241
  0
LINE
  5
4BD
100
AcDbEntity
  8
0
100
AcDbLine
 62
     2
  6
CONTINUOUS
 10
775.830901507420
 20
145.273527280316
 11
776.591552163345
 21
146.034177936241
  0
LINE
  5
4BE
100
AcDbEntity
  8
0
100
AcDbLine
 62
     2
  6
CONTINUOUS
 10
775.964544689064
 20
145.273527280316
 11
776.725195344989
 21
146.034177936241
  0
LINE
  5
4BF
100
AcDbEntity
  8
0
100
AcDbLine
 62
     2
  6
CONTINUOUS
 10
776.098187870708
 20
145.273527280316
 11
776.858838526633
 21
146.034177936241
  0
LINE
  5
4C0
100
AcDbEntity
  8
0
100
AcDbLine
 62
     2
  6
CONTINUOUS
 10
776.231831052353
 20
145.273527280316
 11
776.992481708278
 21
146.034177936241
  0
LINE
  5
4C1
100
AcDbEntity
  8
0
100
AcDbLine
 62
     2
  6
CONTINUOUS
 10
776.365474233997
 20
145.273527280316
 11
777.126124889922
 21
146.034177936241
  0
LINE
  5
4C2
100
AcDbEntity
  8
0
100
AcDbLine
 62
     2
  6
CONTINUOUS
 10
776.499117415641
 20
145.273527280316
 11
777.259768071566
 21
146.034177936241
  0
LINE
  5
4C3
100
AcDbEntity
  8
0
100
AcDbLine
 62
     2
  6
CONTINUOUS
 10
776.632760597285
 20
145.273527280316
 11
777.393411253211
 21
146.034177936241
  0
LINE
  5
4C4
100
AcDbEntity
  8
0
100
AcDbLine
 62
     2
  6
CONTINUOUS
 10
776.766403778930
 20
145.273527280316
 11
777.527054434855
 21
146.034177936241
  0
LINE
  5
4C5
100
AcDbEntity
  8
0
100
AcDbLine
 62
     2
  6
CONTINUOUS
 10
776.900046960574
 20
145.273527280316
 11
777.660697616499
 21
146.034177936241
  0
LINE
  5
4C6
100
AcDbEntity
  8
0
100
AcDbLine
 62
     2
  6
CONTINUOUS
 10
777.033690142218
 20
145.273527280316
 11
777.794340798143
 21
146.034177936241
  0
LINE
  5
4C7
100
AcDbEntity
  8
0
100
AcDbLine
 62
     2
  6
CONTINUOUS
 10
777.167333323862
 20
145.273527280316
 11
777.927983979788
 21
146.034177936241
  0
LINE
  5
4C8
100
AcDbEntity
  8
0
100
AcDbLine
 62
     2
  6
CONTINUOUS
 10
777.300976505507
 20
145.273527280316
 11
778.061627161432
 21
146.034177936241
  0
LINE
  5
4C9
100
AcDbEntity
  8
0
100
AcDbLine
 62
     2
  6
CONTINUOUS
 10
777.701906050440
 20
145.273527280316
 11
778.462556706365
 21
146.034177936241
  0
LINE
  5
4CA
100
AcDbEntity
  8
0
100
AcDbLine
 62
     2
  6
CONTINUOUS
 10
777.969192413728
 20
145.273527280316
 11
778.442976353246
 21
145.747311219833
  0
LINE
  5
4CB
100
AcDbEntity
  8
0
100
AcDbLine
 62
     2
  6
CONTINUOUS
 10
778.102835595372
 20
145.273527280316
 11
778.348513115209
 21
145.519204800153
  0
LINE
  5
4CC
100
AcDbEntity
  8
0
100
AcDbLine
 62
     2
  6
CONTINUOUS
 10
778.236478777017
 20
145.273527280316
 11
778.254049877174
 21
145.291098380473
  0
LINE
  5
4CD
100
AcDbEntity
  8
0
100
AcDbLine
 62
     2
  6
CONTINUOUS
 10
757.949461822646
 20
144.173839971423
 11
758.579461822646
 21
144.803839971423
  0
LINE
  5
4CE
100
AcDbEntity
  8
0
100
AcDbLine
 62
     2
  6
CONTINUOUS
 10
757.849398182109
 20
144.207419512530
 11
758.445818641002
 21
144.803839971423
  0
LINE
  5
4CF
100
AcDbEntity
  8
0
100
AcDbLine
 62
     2
  6
CONTINUOUS
 10
775.697258325775
 20
145.273527280316
 11
776.457908981701
 21
146.034177936241
  0
LINE
  5
4D0
100
AcDbEntity
  8
0
100
AcDbLine
 62
     2
  6
CONTINUOUS
 10
775.563615144131
 20
145.273527280316
 11
776.324265800057
 21
146.034177936241
  0
LINE
  5
4D1
100
AcDbEntity
  8
0
100
AcDbLine
 62
     2
  6
CONTINUOUS
 10
775.429971962487
 20
145.273527280316
 11
776.190622618412
 21
146.034177936241
  0
LINE
  5
4D2
100
AcDbEntity
  8
0
100
AcDbLine
 62
     2
  6
CONTINUOUS
 10
775.296328780843
 20
145.273527280316
 11
776.056979436768
 21
146.034177936241
  0
LINE
  5
4D3
100
AcDbEntity
  8
0
100
AcDbLine
 62
     2
  6
CONTINUOUS
 10
775.162685599198
 20
145.273527280316
 11
775.923336255124
 21
146.034177936241
  0
LINE
  5
4D4
100
AcDbEntity
  8
0
100
AcDbLine
 62
     2
  6
CONTINUOUS
 10
775.029042417554
 20
145.273527280316
 11
775.789693073479
 21
146.034177936241
  0
LINE
  5
4D5
100
AcDbEntity
  8
0
100
AcDbLine
 62
     2
  6
CONTINUOUS
 10
774.895399235910
 20
145.273527280316
 11
775.656049891835
 21
146.034177936241
  0
LINE
  5
4D6
100
AcDbEntity
  8
0
100
AcDbLine
 62
     2
  6
CONTINUOUS
 10
774.761756054266
 20
145.273527280316
 11
775.522406710191
 21
146.034177936241
  0
LINE
  5
4D7
100
AcDbEntity
  8
0
100
AcDbLine
 62
     2
  6
CONTINUOUS
 10
773.289779704666
 20
144.173839971423
 11
773.363150304192
 21
144.247210570949
  0
LINE
  5
4D8
100
AcDbEntity
  8
0
100
AcDbLine
 62
     2
  6
CONTINUOUS
 10
774.628112872621
 20
145.273527280316
 11
775.388763528547
 21
146.034177936241
  0
LINE
  5
4D9
100
AcDbEntity
  8
0
100
AcDbLine
 62
     2
  6
CONTINUOUS
 10
773.156136523022
 20
144.173839971423
 11
773.496793485837
 21
144.514496934238
  0
LINE
  5
4DA
100
AcDbEntity
  8
0
100
AcDbLine
 62
     2
  6
CONTINUOUS
 10
773.022493341377
 20
144.173839971423
 11
773.630436667481
 21
144.781783297527
  0
LINE
  5
4DB
100
AcDbEntity
  8
0
100
AcDbLine
 62
     2
  6
CONTINUOUS
 10
774.360826509333
 20
145.273527280316
 11
775.121477165258
 21
146.034177936241
  0
LINE
  5
4DC
100
AcDbEntity
  8
0
100
AcDbLine
 62
     2
  6
CONTINUOUS
 10
772.888850159733
 20
144.173839971423
 11
773.518850159733
 21
144.803839971423
  0
LINE
  5
4DD
100
AcDbEntity
  8
0
100
AcDbLine
 62
     2
  6
CONTINUOUS
 10
774.309273348004
 20
145.355617300631
 11
774.987833983614
 21
146.034177936241
  0
LINE
  5
4DE
100
AcDbEntity
  8
0
100
AcDbLine
 62
     2
  6
CONTINUOUS
 10
772.755206978089
 20
144.173839971423
 11
773.385206978089
 21
144.803839971423
  0
LINE
  5
4DF
100
AcDbEntity
  8
0
100
AcDbLine
 62
     2
  6
CONTINUOUS
 10
774.309273348004
 20
145.489260482275
 11
774.854190801969
 21
146.034177936241
  0
LINE
  5
4E0
100
AcDbEntity
  8
0
100
AcDbLine
 62
     2
  6
CONTINUOUS
 10
772.621563796445
 20
144.173839971423
 11
773.251563796445
 21
144.803839971423
  0
LINE
  5
4E1
100
AcDbEntity
  8
0
100
AcDbLine
 62
     2
  6
CONTINUOUS
 10
774.309273348004
 20
145.622903663919
 11
774.720547620325
 21
146.034177936241
  0
LINE
  5
4E2
100
AcDbEntity
  8
0
100
AcDbLine
 62
     2
  6
CONTINUOUS
 10
772.487920614800
 20
144.173839971423
 11
773.117920614800
 21
144.803839971423
  0
LINE
  5
4E3
100
AcDbEntity
  8
0
100
AcDbLine
 62
     2
  6
CONTINUOUS
 10
774.309273348004
 20
145.756546845564
 11
774.586904438681
 21
146.034177936241
  0
LINE
  5
4E4
100
AcDbEntity
  8
0
100
AcDbLine
 62
     2
  6
CONTINUOUS
 10
772.354277433156
 20
144.173839971423
 11
772.984277433156
 21
144.803839971423
  0
LINE
  5
4E5
100
AcDbEntity
  8
0
100
AcDbLine
 62
     2
  6
CONTINUOUS
 10
774.309273348004
 20
145.890190027208
 11
774.453261257037
 21
146.034177936241
  0
LINE
  5
4E6
100
AcDbEntity
  8
0
100
AcDbLine
 62
     2
  6
CONTINUOUS
 10
772.220634251512
 20
144.173839971423
 11
772.850634251512
 21
144.803839971423
  0
LINE
  5
4E7
100
AcDbEntity
  8
0
100
AcDbLine
 62
     2
  6
CONTINUOUS
 10
772.086991069868
 20
144.173839971423
 11
772.716991069868
 21
144.803839971423
  0
LINE
  5
4E8
100
AcDbEntity
  8
0
100
AcDbLine
 62
     2
  6
CONTINUOUS
 10
771.953347888223
 20
144.173839971423
 11
772.583347888223
 21
144.803839971423
  0
LINE
  5
4E9
100
AcDbEntity
  8
0
100
AcDbLine
 62
     2
  6
CONTINUOUS
 10
771.819704706579
 20
144.173839971423
 11
772.449704706579
 21
144.803839971423
  0
LINE
  5
4EA
100
AcDbEntity
  8
0
100
AcDbLine
 62
     2
  6
CONTINUOUS
 10
772.912797702014
 20
145.266932966858
 11
772.919392015472
 21
145.273527280316
  0
LINE
  5
4EB
100
AcDbEntity
  8
0
100
AcDbLine
 62
     2
  6
CONTINUOUS
 10
772.919392015472
 20
145.273527280316
 11
773.089426136132
 21
145.443561400977
  0
LINE
  5
4EC
100
AcDbEntity
  8
0
100
AcDbLine
 62
     2
  6
CONTINUOUS
 10
771.686061524935
 20
144.173839971423
 11
772.316061524935
 21
144.803839971423
  0
LINE
  5
4ED
100
AcDbEntity
  8
0
100
AcDbLine
 62
     2
  6
CONTINUOUS
 10
772.779154520370
 20
145.266932966858
 11
773.170558411422
 21
145.658336857911
  0
LINE
  5
4EE
100
AcDbEntity
  8
0
100
AcDbLine
 62
     2
  6
CONTINUOUS
 10
771.552418343290
 20
144.173839971423
 11
772.182418343290
 21
144.803839971423
  0
LINE
  5
4EF
100
AcDbEntity
  8
0
100
AcDbLine
 62
     2
  6
CONTINUOUS
 10
772.645511338725
 20
145.266932966858
 11
773.251690686712
 21
145.873112314845
  0
LINE
  5
4F0
100
AcDbEntity
  8
0
100
AcDbLine
 62
     2
  6
CONTINUOUS
 10
771.418775161646
 20
144.173839971423
 11
772.048775161646
 21
144.803839971423
  0
LINE
  5
4F1
100
AcDbEntity
  8
0
100
AcDbLine
 62
     2
  6
CONTINUOUS
 10
772.511868157081
 20
145.266932966858
 11
773.279113126464
 21
146.034177936241
  0
LINE
  5
4F2
100
AcDbEntity
  8
0
100
AcDbLine
 62
     2
  6
CONTINUOUS
 10
773.279113126464
 20
146.034177936241
 11
773.332822962002
 21
146.087887771779
  0
LINE
  5
4F3
100
AcDbEntity
  8
0
100
AcDbLine
 62
     2
  6
CONTINUOUS
 10
771.285131980002
 20
144.173839971423
 11
771.915131980002
 21
144.803839971423
  0
LINE
  5
4F4
100
AcDbEntity
  8
0
100
AcDbLine
 62
     2
  6
CONTINUOUS
 10
772.378224975437
 20
145.266932966858
 11
773.145469944820
 21
146.034177936241
  0
LINE
  5
4F5
100
AcDbEntity
  8
0
100
AcDbLine
 62
     2
  6
CONTINUOUS
 10
773.145469944820
 20
146.034177936241
 11
773.413955237292
 21
146.302663228713
  0
LINE
  5
4F6
100
AcDbEntity
  8
0
100
AcDbLine
 62
     2
  6
CONTINUOUS
 10
771.151488798358
 20
144.173839971423
 11
771.781488798358
 21
144.803839971423
  0
LINE
  5
4F7
100
AcDbEntity
  8
0
100
AcDbLine
 62
     2
  6
CONTINUOUS
 10
772.244581793793
 20
145.266932966858
 11
773.011826763176
 21
146.034177936241
  0
LINE
  5
4F8
100
AcDbEntity
  8
0
100
AcDbLine
 62
     2
  6
CONTINUOUS
 10
773.011826763176
 20
146.034177936241
 11
773.495087512581
 21
146.517438685647
  0
LINE
  5
4F9
100
AcDbEntity
  8
0
100
AcDbLine
 62
     2
  6
CONTINUOUS
 10
771.017845616713
 20
144.173839971423
 11
771.647845616713
 21
144.803839971423
  0
LINE
  5
4FA
100
AcDbEntity
  8
0
100
AcDbLine
 62
     2
  6
CONTINUOUS
 10
772.110938612148
 20
145.266932966858
 11
772.878183581531
 21
146.034177936241
  0
LINE
  5
4FB
100
AcDbEntity
  8
0
100
AcDbLine
 62
     2
  6
CONTINUOUS
 10
772.878183581531
 20
146.034177936241
 11
773.576219787871
 21
146.732214142581
  0
LINE
  5
4FC
100
AcDbEntity
  8
0
100
AcDbLine
 62
     2
  6
CONTINUOUS
 10
770.884202435069
 20
144.173839971423
 11
771.514202435069
 21
144.803839971423
  0
LINE
  5
4FD
100
AcDbEntity
  8
0
100
AcDbLine
 62
     2
  6
CONTINUOUS
 10
771.977295430504
 20
145.266932966858
 11
773.615295430504
 21
146.904932966858
  0
LINE
  5
4FE
100
AcDbEntity
  8
0
100
AcDbLine
 62
     2
  6
CONTINUOUS
 10
770.750559253425
 20
144.173839971423
 11
771.380559253425
 21
144.803839971423
  0
LINE
  5
4FF
100
AcDbEntity
  8
0
100
AcDbLine
 62
     2
  6
CONTINUOUS
 10
771.843652248860
 20
145.266932966858
 11
773.481652248860
 21
146.904932966858
  0
LINE
  5
500
100
AcDbEntity
  8
0
100
AcDbLine
 62
     2
  6
CONTINUOUS
 10
770.616916071780
 20
144.173839971423
 11
770.619908440471
 21
144.176832340114
  0
LINE
  5
501
100
AcDbEntity
  8
0
100
AcDbLine
 62
     2
  6
CONTINUOUS
 10
770.619908440471
 20
144.176832340114
 11
771.246916071781
 21
144.803839971423
  0
LINE
  5
502
100
AcDbEntity
  8
0
100
AcDbLine
 62
     2
  6
CONTINUOUS
 10
771.710009067216
 20
145.266932966858
 11
773.348009067216
 21
146.904932966858
  0
LINE
  5
503
100
AcDbEntity
  8
0
100
AcDbLine
 62
     2
  6
CONTINUOUS
 10
770.499314378050
 20
144.189881459336
 11
771.113272890136
 21
144.803839971423
  0
LINE
  5
504
100
AcDbEntity
  8
0
100
AcDbLine
 62
     2
  6
CONTINUOUS
 10
771.668960480321
 20
145.359527561608
 11
773.214365885571
 21
146.904932966858
  0
LINE
  5
505
100
AcDbEntity
  8
0
100
AcDbLine
 62
     2
  6
CONTINUOUS
 10
770.387309134585
 20
144.211519397517
 11
770.979629708492
 21
144.803839971423
  0
LINE
  5
506
100
AcDbEntity
  8
0
100
AcDbLine
 62
     2
  6
CONTINUOUS
 10
771.750092757392
 20
145.574303020323
 11
773.080722703927
 21
146.904932966858
  0
LINE
  5
507
100
AcDbEntity
  8
0
100
AcDbLine
 62
     2
  6
CONTINUOUS
 10
770.282583841039
 20
144.240437285614
 11
770.806465004429
 21
144.764318449005
  0
LINE
  5
508
100
AcDbEntity
  8
0
100
AcDbLine
 62
     2
  6
CONTINUOUS
 10
770.806465004429
 20
144.764318449005
 11
770.845986526848
 21
144.803839971423
  0
LINE
  5
509
100
AcDbEntity
  8
0
100
AcDbLine
 62
     2
  6
CONTINUOUS
 10
771.831225034463
 20
145.789078479038
 11
772.947079522283
 21
146.904932966858
  0
LINE
  5
50A
100
AcDbEntity
  8
0
100
AcDbLine
 62
     2
  6
CONTINUOUS
 10
770.184239889388
 20
144.275736515607
 11
770.712343345203
 21
144.803839971423
  0
LINE
  5
50B
100
AcDbEntity
  8
0
100
AcDbLine
 62
     2
  6
CONTINUOUS
 10
770.712343345203
 20
144.803839971423
 11
770.806465004429
 21
144.897961630649
  0
LINE
  5
50C
100
AcDbEntity
  8
0
100
AcDbLine
 62
     2
  6
CONTINUOUS
 10
771.912357311533
 20
146.003853937753
 11
772.813436340638
 21
146.904932966858
  0
LINE
  5
50D
100
AcDbEntity
  8
0
100
AcDbLine
 62
     2
  6
CONTINUOUS
 10
770.091640124454
 20
144.316779932318
 11
770.578700163559
 21
144.803839971423
  0
LINE
  5
50E
100
AcDbEntity
  8
0
100
AcDbLine
 62
     2
  6
CONTINUOUS
 10
770.578700163559
 20
144.803839971423
 11
770.806465004429
 21
145.031604812293
  0
LINE
  5
50F
100
AcDbEntity
  8
0
100
AcDbLine
 62
     2
  6
CONTINUOUS
 10
772.018293158994
 20
146.243432966858
 11
772.679793158994
 21
146.904932966858
  0
LINE
  5
510
100
AcDbEntity
  8
0
100
AcDbLine
 62
     2
  6
CONTINUOUS
 10
770.004325497778
 20
144.363108487286
 11
770.445056981915
 21
144.803839971423
  0
LINE
  5
511
100
AcDbEntity
  8
0
100
AcDbLine
 62
     2
  6
CONTINUOUS
 10
770.445056981915
 20
144.803839971423
 11
770.806465004429
 21
145.165247993937
  0
LINE
  5
512
100
AcDbEntity
  8
0
100
AcDbLine
 62
     2
  6
CONTINUOUS
 10
771.884649977350
 20
146.243432966858
 11
772.074621865675
 21
146.433404855184
  0
LINE
  5
513
100
AcDbEntity
  8
0
100
AcDbLine
 62
     2
  6
CONTINUOUS
 10
772.074621865675
 20
146.433404855184
 11
772.546149977350
 21
146.904932966858
  0
LINE
  5
514
100
AcDbEntity
  8
0
100
AcDbLine
 62
     2
  6
CONTINUOUS
 10
769.921965568255
 20
144.414391739408
 11
770.311413800271
 21
144.803839971423
  0
LINE
  5
515
100
AcDbEntity
  8
0
100
AcDbLine
 62
     2
  6
CONTINUOUS
 10
770.311413800271
 20
144.803839971423
 11
770.806465004429
 21
145.298891175582
  0
LINE
  5
516
100
AcDbEntity
  8
0
100
AcDbLine
 62
     2
  6
CONTINUOUS
 10
771.751006795706
 20
146.243432966858
 11
772.412506795706
 21
146.904932966858
  0
LINE
  5
517
100
AcDbEntity
  8
0
100
AcDbLine
 62
     2
  6
CONTINUOUS
 10
769.844328019036
 20
144.470397371832
 11
770.177770618626
 21
144.803839971423
  0
LINE
  5
518
100
AcDbEntity
  8
0
100
AcDbLine
 62
     2
  6
CONTINUOUS
 10
770.177770618626
 20
144.803839971423
 11
770.806465004429
 21
145.432534357226
  0
LINE
  5
519
100
AcDbEntity
  8
0
100
AcDbLine
 62
     2
  6
CONTINUOUS
 10
771.617363614061
 20
146.243432966858
 11
772.278863614061
 21
146.904932966858
  0
LINE
  5
51A
100
AcDbEntity
  8
0
100
AcDbLine
 62
     2
  6
CONTINUOUS
 10
769.771259689359
 20
144.530972223800
 11
770.044127436982
 21
144.803839971423
  0
LINE
  5
51B
100
AcDbEntity
  8
0
100
AcDbLine
 62
     2
  6
CONTINUOUS
 10
770.044127436982
 20
144.803839971423
 11
770.806465004429
 21
145.566177538870
  0
LINE
  5
51C
100
AcDbEntity
  8
0
100
AcDbLine
 62
     2
  6
CONTINUOUS
 10
771.483720432417
 20
146.243432966858
 11
772.145220432417
 21
146.904932966858
  0
LINE
  5
51D
100
AcDbEntity
  8
0
100
AcDbLine
 62
     2
  6
CONTINUOUS
 10
769.702675143870
 20
144.596030859955
 11
770.806465004429
 21
145.699820720514
  0
LINE
  5
51E
100
AcDbEntity
  8
0
100
AcDbLine
 62
     2
  6
CONTINUOUS
 10
771.350077250773
 20
146.243432966858
 11
772.011577250773
 21
146.904932966858
  0
LINE
  5
51F
100
AcDbEntity
  8
0
100
AcDbLine
 62
     2
  6
CONTINUOUS
 10
769.638550658728
 20
144.665549556457
 11
770.806465004429
 21
145.833463902159
  0
LINE
  5
520
100
AcDbEntity
  8
0
100
AcDbLine
 62
     2
  6
CONTINUOUS
 10
771.216434069129
 20
146.243432966858
 11
771.877934069129
 21
146.904932966858
  0
LINE
  5
521
100
AcDbEntity
  8
0
100
AcDbLine
 62
     2
  6
CONTINUOUS
 10
769.578922597073
 20
144.739564676447
 11
770.806465004429
 21
145.967107083803
  0
LINE
  5
522
100
AcDbEntity
  8
0
100
AcDbLine
 62
     2
  6
CONTINUOUS
 10
771.082790887484
 20
146.243432966858
 11
771.744290887484
 21
146.904932966858
  0
LINE
  5
523
100
AcDbEntity
  8
0
100
AcDbLine
 62
     2
  6
CONTINUOUS
 10
769.523889907091
 20
144.818175168109
 11
770.806465004429
 21
146.100750265447
  0
LINE
  5
524
100
AcDbEntity
  8
0
100
AcDbLine
 62
     2
  6
CONTINUOUS
 10
770.949147705840
 20
146.243432966858
 11
771.610647705840
 21
146.904932966858
  0
LINE
  5
525
100
AcDbEntity
  8
0
100
AcDbLine
 62
     2
  6
CONTINUOUS
 10
769.473621154780
 20
144.901549597442
 11
770.806465004429
 21
146.234393447092
  0
LINE
  5
526
100
AcDbEntity
  8
0
100
AcDbLine
 62
     2
  6
CONTINUOUS
 10
770.806465004429
 20
146.234393447092
 11
770.815504524196
 21
146.243432966858
  0
LINE
  5
527
100
AcDbEntity
  8
0
100
AcDbLine
 62
     2
  6
CONTINUOUS
 10
770.815504524196
 20
146.243432966858
 11
771.477004524196
 21
146.904932966858
  0
LINE
  5
528
100
AcDbEntity
  8
0
100
AcDbLine
 62
     2
  6
CONTINUOUS
 10
769.428367309626
 20
144.989938933932
 11
770.681861342551
 21
146.243432966858
  0
LINE
  5
529
100
AcDbEntity
  8
0
100
AcDbLine
 62
     2
  6
CONTINUOUS
 10
770.681861342551
 20
146.243432966858
 11
770.806465004429
 21
146.368036628736
  0
LINE
  5
52A
100
AcDbEntity
  8
0
100
AcDbLine
 62
     2
  6
CONTINUOUS
 10
770.806465004429
 20
146.368036628736
 11
771.343361342551
 21
146.904932966858
  0
LINE
  5
52B
100
AcDbEntity
  8
0
100
AcDbLine
 62
     2
  6
CONTINUOUS
 10
769.388482708980
 20
145.083697514931
 11
770.548218160907
 21
146.243432966858
  0
LINE
  5
52C
100
AcDbEntity
  8
0
100
AcDbLine
 62
     2
  6
CONTINUOUS
 10
770.548218160907
 20
146.243432966858
 11
770.806465004429
 21
146.501679810380
  0
LINE
  5
52D
100
AcDbEntity
  8
0
100
AcDbLine
 62
     2
  6
CONTINUOUS
 10
770.806465004429
 20
146.501679810380
 11
771.209718160907
 21
146.904932966858
  0
LINE
  5
52E
100
AcDbEntity
  8
0
100
AcDbLine
 62
     2
  6
CONTINUOUS
 10
769.354458733053
 20
145.183316720648
 11
770.806465004429
 21
146.635322992024
  0
LINE
  5
52F
100
AcDbEntity
  8
0
100
AcDbLine
 62
     2
  6
CONTINUOUS
 10
770.806465004429
 20
146.635322992024
 11
771.076074979263
 21
146.904932966858
  0
LINE
  5
530
100
AcDbEntity
  8
0
100
AcDbLine
 62
     2
  6
CONTINUOUS
 10
769.326978799223
 20
145.289479968462
 11
770.942431797619
 21
146.904932966858
  0
LINE
  5
531
100
AcDbEntity
  8
0
100
AcDbLine
 62
     2
  6
CONTINUOUS
 10
769.307011927719
 20
145.403156278603
 11
770.806465004429
 21
146.902609355313
  0
LINE
  5
532
100
AcDbEntity
  8
0
100
AcDbLine
 62
     2
  6
CONTINUOUS
 10
769.295982371667
 20
145.525769904195
 11
770.675145434330
 21
146.904932966858
  0
LINE
  5
533
100
AcDbEntity
  8
0
100
AcDbLine
 62
     2
  6
CONTINUOUS
 10
770.675145434330
 20
146.904932966858
 11
770.806465004429
 21
147.036252536957
  0
LINE
  5
534
100
AcDbEntity
  8
0
100
AcDbLine
 62
     2
  6
CONTINUOUS
 10
769.294465004429
 20
145.657895718601
 11
770.541502252686
 21
146.904932966858
  0
LINE
  5
535
100
AcDbEntity
  8
0
100
AcDbLine
 62
     2
  6
CONTINUOUS
 10
770.541502252686
 20
146.904932966858
 11
770.806465004429
 21
147.169895718602
  0
LINE
  5
536
100
AcDbEntity
  8
0
100
AcDbLine
 62
     2
  6
CONTINUOUS
 10
769.294465004429
 20
145.791538900246
 11
770.407859071042
 21
146.904932966858
  0
LINE
  5
537
100
AcDbEntity
  8
0
100
AcDbLine
 62
     2
  6
CONTINUOUS
 10
770.407859071042
 20
146.904932966858
 11
770.806465004429
 21
147.303538900246
  0
LINE
  5
538
100
AcDbEntity
  8
0
100
AcDbLine
 62
     2
  6
CONTINUOUS
 10
769.294465004429
 20
145.925182081890
 11
770.274215889397
 21
146.904932966858
  0
LINE
  5
539
100
AcDbEntity
  8
0
100
AcDbLine
 62
     2
  6
CONTINUOUS
 10
770.274215889397
 20
146.904932966858
 11
770.806465004429
 21
147.437182081890
  0
LINE
  5
53A
100
AcDbEntity
  8
0
100
AcDbLine
 62
     2
  6
CONTINUOUS
 10
769.294465004429
 20
146.058825263534
 11
770.140572707753
 21
146.904932966858
  0
LINE
  5
53B
100
AcDbEntity
  8
0
100
AcDbLine
 62
     2
  6
CONTINUOUS
 10
770.140572707753
 20
146.904932966858
 11
770.707572707753
 21
147.471932966858
  0
LINE
  5
53C
100
AcDbEntity
  8
0
100
AcDbLine
 62
     2
  6
CONTINUOUS
 10
769.294465004429
 20
146.192468445179
 11
769.345429526109
 21
146.243432966858
  0
LINE
  5
53D
100
AcDbEntity
  8
0
100
AcDbLine
 62
     2
  6
CONTINUOUS
 10
769.345429526109
 20
146.243432966858
 11
770.006929526109
 21
146.904932966858
  0
LINE
  5
53E
100
AcDbEntity
  8
0
100
AcDbLine
 62
     2
  6
CONTINUOUS
 10
770.006929526109
 20
146.904932966858
 11
770.573929526109
 21
147.471932966858
  0
LINE
  5
53F
100
AcDbEntity
  8
0
100
AcDbLine
 62
     2
  6
CONTINUOUS
 10
769.211786344464
 20
146.243432966858
 11
770.440286344464
 21
147.471932966858
  0
LINE
  5
540
100
AcDbEntity
  8
0
100
AcDbLine
 62
     2
  6
CONTINUOUS
 10
769.078143162820
 20
146.243432966858
 11
770.306643162820
 21
147.471932966858
  0
LINE
  5
541
100
AcDbEntity
  8
0
100
AcDbLine
 62
     2
  6
CONTINUOUS
 10
766.588531954866
 20
144.173839971423
 11
766.635219685571
 21
144.220527702128
  0
LINE
  5
542
100
AcDbEntity
  8
0
100
AcDbLine
 62
     2
  6
CONTINUOUS
 10
768.944499981176
 20
146.243432966858
 11
770.172999981176
 21
147.471932966858
  0
LINE
  5
543
100
AcDbEntity
  8
0
100
AcDbLine
 62
     2
  6
CONTINUOUS
 10
766.454888773221
 20
144.173839971423
 11
766.635219685571
 21
144.354170883773
  0
LINE
  5
544
100
AcDbEntity
  8
0
100
AcDbLine
 62
     2
  6
CONTINUOUS
 10
768.903263977833
 20
146.335840145160
 11
770.039356799532
 21
147.471932966858
  0
LINE
  5
545
100
AcDbEntity
  8
0
100
AcDbLine
 62
     2
  6
CONTINUOUS
 10
766.321245591577
 20
144.173839971423
 11
766.635219685571
 21
144.487814065417
  0
LINE
  5
546
100
AcDbEntity
  8
0
100
AcDbLine
 62
     2
  6
CONTINUOUS
 10
768.886558578883
 20
146.452777927854
 11
769.294465004429
 21
146.860684353400
  0
LINE
  5
547
100
AcDbEntity
  8
0
100
AcDbLine
 62
     2
  6
CONTINUOUS
 10
769.294465004429
 20
146.860684353400
 11
769.338713617887
 21
146.904932966858
  0
LINE
  5
548
100
AcDbEntity
  8
0
100
AcDbLine
 62
     2
  6
CONTINUOUS
 10
769.338713617887
 20
146.904932966858
 11
769.905713617887
 21
147.471932966858
  0
LINE
  5
549
100
AcDbEntity
  8
0
100
AcDbLine
 62
     2
  6
CONTINUOUS
 10
766.187602409933
 20
144.173839971423
 11
766.635219685571
 21
144.621457247061
  0
LINE
  5
54A
100
AcDbEntity
  8
0
100
AcDbLine
 62
     2
  6
CONTINUOUS
 10
768.869853179933
 20
146.569715710548
 11
769.205070436243
 21
146.904932966858
  0
LINE
  5
54B
100
AcDbEntity
  8
0
100
AcDbLine
 62
     2
  6
CONTINUOUS
 10
769.294465004429
 20
146.994327535044
 11
769.772070436243
 21
147.471932966858
  0
LINE
  5
54C
100
AcDbEntity
  8
0
100
AcDbLine
 62
     2
  6
CONTINUOUS
 10
766.053959228289
 20
144.173839971423
 11
766.635219685571
 21
144.755100428706
  0
LINE
  5
54D
100
AcDbEntity
  8
0
100
AcDbLine
 62
     2
  6
CONTINUOUS
 10
768.853147780983
 20
146.686653493242
 11
769.071427254599
 21
146.904932966858
  0
LINE
  5
54E
100
AcDbEntity
  8
0
100
AcDbLine
 62
     2
  6
CONTINUOUS
 10
769.294465004429
 20
147.127970716688
 11
769.638427254599
 21
147.471932966858
  0
LINE
  5
54F
100
AcDbEntity
  8
0
100
AcDbLine
 62
     2
  6
CONTINUOUS
 10
765.920316046644
 20
144.173839971423
 11
766.635219685571
 21
144.888743610350
  0
LINE
  5
550
100
AcDbEntity
  8
0
100
AcDbLine
 62
     2
  6
CONTINUOUS
 10
768.836442382033
 20
146.803591275936
 11
768.937784072955
 21
146.904932966858
  0
LINE
  5
551
100
AcDbEntity
  8
0
100
AcDbLine
 62
     2
  6
CONTINUOUS
 10
769.294465004429
 20
147.261613898333
 11
769.504784072955
 21
147.471932966858
  0
LINE
  5
552
100
AcDbEntity
  8
0
100
AcDbLine
 62
     2
  6
CONTINUOUS
 10
765.786672865000
 20
144.173839971423
 11
766.635219685571
 21
145.022386791994
  0
LINE
  5
553
100
AcDbEntity
  8
0
100
AcDbLine
 62
     2
  6
CONTINUOUS
 10
769.294465004429
 20
147.395257079977
 11
769.371140891310
 21
147.471932966858
  0
LINE
  5
554
100
AcDbEntity
  8
0
100
AcDbLine
 62
     2
  6
CONTINUOUS
 10
765.653029683356
 20
144.173839971423
 11
766.635219685571
 21
145.156029973638
  0
LINE
  5
555
100
AcDbEntity
  8
0
100
AcDbLine
 62
     2
  6
CONTINUOUS
 10
765.519386501712
 20
144.173839971423
 11
766.635219685571
 21
145.289673155283
  0
LINE
  5
556
100
AcDbEntity
  8
0
100
AcDbLine
 62
     2
  6
CONTINUOUS
 10
765.385743320067
 20
144.173839971423
 11
766.635219685571
 21
145.423316336927
  0
LINE
  5
557
100
AcDbEntity
  8
0
100
AcDbLine
 62
     2
  6
CONTINUOUS
 10
765.252100138423
 20
144.173839971423
 11
766.635219685571
 21
145.556959518571
  0
LINE
  5
558
100
AcDbEntity
  8
0
100
AcDbLine
 62
     2
  6
CONTINUOUS
 10
765.118456956779
 20
144.173839971423
 11
766.635219685571
 21
145.690602700216
  0
LINE
  5
559
100
AcDbEntity
  8
0
100
AcDbLine
 62
     2
  6
CONTINUOUS
 10
766.129365138725
 20
145.318391335014
 11
765.060219685571
 21
144.249245881860
  0
LINE
  5
55A
100
AcDbEntity
  8
0
100
AcDbLine
 62
     2
  6
CONTINUOUS
 10
765.995721957081
 20
145.318391335014
 11
765.060219685571
 21
144.382889063504
  0
LINE
  5
55B
100
AcDbEntity
  8
0
100
AcDbLine
 62
     2
  6
CONTINUOUS
 10
765.862078775437
 20
145.318391335014
 11
765.060219685571
 21
144.516532245148
  0
LINE
  5
55C
100
AcDbEntity
  8
0
100
AcDbLine
 62
     2
  6
CONTINUOUS
 10
767.725085414044
 20
147.181397973622
 11
768.015620407281
 21
147.471932966858
  0
LINE
  5
55D
100
AcDbEntity
  8
0
100
AcDbLine
 62
     2
  6
CONTINUOUS
 10
765.728435593792
 20
145.318391335014
 11
765.060219685571
 21
144.650175426793
  0
LINE
  5
55E
100
AcDbEntity
  8
0
100
AcDbLine
 62
     2
  6
CONTINUOUS
 10
767.086567990633
 20
146.676523731855
 11
767.881977225637
 21
147.471932966858
  0
LINE
  5
55F
100
AcDbEntity
  8
0
100
AcDbLine
 62
     2
  6
CONTINUOUS
 10
765.594792412148
 20
145.318391335014
 11
765.060219685571
 21
144.783818608437
  0
LINE
  5
560
100
AcDbEntity
  8
0
100
AcDbLine
 62
     2
  6
CONTINUOUS
 10
766.448050567222
 20
146.171649490087
 11
767.748334043992
 21
147.471932966858
  0
LINE
  5
561
100
AcDbEntity
  8
0
100
AcDbLine
 62
     2
  6
CONTINUOUS
 10
765.461149230504
 20
145.318391335014
 11
765.060219685571
 21
144.917461790081
  0
LINE
  5
562
100
AcDbEntity
  8
0
100
AcDbLine
 62
     2
  6
CONTINUOUS
 10
765.877689193276
 20
145.734931297786
 11
767.614690862348
 21
147.471932966858
  0
LINE
  5
563
100
AcDbEntity
  8
0
100
AcDbLine
 62
     2
  6
CONTINUOUS
 10
765.327506048860
 20
145.318391335014
 11
765.060219685571
 21
145.051104971725
  0
LINE
  5
564
100
AcDbEntity
  8
0
100
AcDbLine
 62
     2
  6
CONTINUOUS
 10
765.744046011632
 20
145.734931297786
 11
767.481047680704
 21
147.471932966858
  0
LINE
  5
565
100
AcDbEntity
  8
0
100
AcDbLine
 62
     2
  6
CONTINUOUS
 10
765.193862867215
 20
145.318391335014
 11
765.060219685571
 21
145.184748153370
  0
LINE
  5
566
100
AcDbEntity
  8
0
100
AcDbLine
 62
     2
  6
CONTINUOUS
 10
765.610402829988
 20
145.734931297786
 11
767.347404499059
 21
147.471932966858
  0
LINE
  5
567
100
AcDbEntity
  8
0
100
AcDbLine
 62
     2
  6
CONTINUOUS
 10
765.476759648344
 20
145.734931297786
 11
767.213761317415
 21
147.471932966858
  0
LINE
  5
568
100
AcDbEntity
  8
0
100
AcDbLine
 62
     2
  6
CONTINUOUS
 10
765.343116466699
 20
145.734931297786
 11
767.080118135771
 21
147.471932966858
  0
LINE
  5
569
100
AcDbEntity
  8
0
100
AcDbLine
 62
     2
  6
CONTINUOUS
 10
765.209473285055
 20
145.734931297786
 11
766.946474954127
 21
147.471932966858
  0
LINE
  5
56A
100
AcDbEntity
  8
0
100
AcDbLine
 62
     2
  6
CONTINUOUS
 10
765.075830103411
 20
145.734931297786
 11
766.812831772482
 21
147.471932966858
  0
LINE
  5
56B
100
AcDbEntity
  8
0
100
AcDbLine
 62
     2
  6
CONTINUOUS
 10
764.942186921767
 20
145.734931297786
 11
766.679188590838
 21
147.471932966858
  0
LINE
  5
56C
100
AcDbEntity
  8
0
100
AcDbLine
 62
     2
  6
CONTINUOUS
 10
764.808543740122
 20
145.734931297786
 11
766.545545409194
 21
147.471932966858
  0
LINE
  5
56D
100
AcDbEntity
  8
0
100
AcDbLine
 62
     2
  6
CONTINUOUS
 10
764.674900558478
 20
145.734931297786
 11
766.411902227550
 21
147.471932966858
  0
LINE
  5
56E
100
AcDbEntity
  8
0
100
AcDbLine
 62
     2
  6
CONTINUOUS
 10
764.541257376834
 20
145.734931297786
 11
766.278259045905
 21
147.471932966858
  0
LINE
  5
56F
100
AcDbEntity
  8
0
100
AcDbLine
 62
     2
  6
CONTINUOUS
 10
764.407614195189
 20
145.734931297786
 11
766.144615864261
 21
147.471932966858
  0
LINE
  5
570
100
AcDbEntity
  8
0
100
AcDbLine
 62
     2
  6
CONTINUOUS
 10
764.273971013545
 20
145.734931297786
 11
766.010972682617
 21
147.471932966858
  0
LINE
  5
571
100
AcDbEntity
  8
0
100
AcDbLine
 62
     2
  6
CONTINUOUS
 10
764.140327831901
 20
145.734931297786
 11
765.877329500973
 21
147.471932966858
  0
LINE
  5
572
100
AcDbEntity
  8
0
100
AcDbLine
 62
     2
  6
CONTINUOUS
 10
764.006684650257
 20
145.734931297786
 11
765.743686319328
 21
147.471932966858
  0
LINE
  5
573
100
AcDbEntity
  8
0
100
AcDbLine
 62
     2
  6
CONTINUOUS
 10
761.904885992369
 20
144.387255055106
 11
762.360983098426
 21
144.843352161163
  0
LINE
  5
574
100
AcDbEntity
  8
0
100
AcDbLine
 62
     2
  6
CONTINUOUS
 10
763.873041468612
 20
145.734931297786
 11
765.289336699892
 21
147.151226529066
  0
LINE
  5
575
100
AcDbEntity
  8
0
100
AcDbLine
 62
     2
  6
CONTINUOUS
 10
761.644234272335
 20
144.260246516716
 11
762.487991636816
 21
145.104003881197
  0
LINE
  5
576
100
AcDbEntity
  8
0
100
AcDbLine
 62
     2
  6
CONTINUOUS
 10
763.739398286968
 20
145.734931297786
 11
764.621120881954
 21
146.616653892772
  0
LINE
  5
577
100
AcDbEntity
  8
0
100
AcDbLine
 62
     2
  6
CONTINUOUS
 10
761.456127620008
 20
144.205783046034
 11
762.542455107498
 21
145.292110533524
  0
LINE
  5
578
100
AcDbEntity
  8
0
100
AcDbLine
 62
     2
  6
CONTINUOUS
 10
763.605755105324
 20
145.734931297786
 11
763.952905064016
 21
146.082081256478
  0
LINE
  5
579
100
AcDbEntity
  8
0
100
AcDbLine
 62
     2
  6
CONTINUOUS
 10
761.290541363753
 20
144.173839971423
 11
761.297535262521
 21
144.180833870191
  0
LINE
  5
57A
100
AcDbEntity
  8
0
100
AcDbLine
 62
     2
  6
CONTINUOUS
 10
761.297535262521
 20
144.180833870191
 11
762.567404283341
 21
145.450702891011
  0
LINE
  5
57B
100
AcDbEntity
  8
0
100
AcDbLine
 62
     2
  6
CONTINUOUS
 10
762.567404283341
 20
145.450702891011
 11
762.574398182109
 21
145.457696789779
  0
LINE
  5
57C
100
AcDbEntity
  8
0
100
AcDbLine
 62
     2
  6
CONTINUOUS
 10
758.089951073988
 20
147.254479218939
 11
758.307404821907
 21
147.471932966858
  0
LINE
  5
57D
100
AcDbEntity
  8
0
100
AcDbLine
 62
     2
  6
CONTINUOUS
 10
758.020378427802
 20
147.051263391109
 11
758.441048003552
 21
147.471932966858
  0
LINE
  5
57E
100
AcDbEntity
  8
0
100
AcDbLine
 62
     2
  6
CONTINUOUS
 10
757.950805781617
 20
146.848047563279
 11
758.574691185196
 21
147.471932966858
  0
LINE
  5
57F
100
AcDbEntity
  8
0
100
AcDbLine
 62
     2
  6
CONTINUOUS
 10
757.881233135431
 20
146.644831735449
 11
758.708334366840
 21
147.471932966858
  0
LINE
  5
580
100
AcDbEntity
  8
0
100
AcDbLine
 62
     2
  6
CONTINUOUS
 10
757.811660489246
 20
146.441615907619
 11
758.841977548484
 21
147.471932966858
  0
LINE
  5
581
100
AcDbEntity
  8
0
100
AcDbLine
 62
     2
  6
CONTINUOUS
 10
757.742087843060
 20
146.238400079789
 11
758.975620730129
 21
147.471932966858
  0
LINE
  5
582
100
AcDbEntity
  8
0
100
AcDbLine
 62
     2
  6
CONTINUOUS
 10
757.672515196874
 20
146.035184251960
 11
759.109263911773
 21
147.471932966858
  0
LINE
  5
583
100
AcDbEntity
  8
0
100
AcDbLine
 62
     2
  6
CONTINUOUS
 10
757.602942550689
 20
145.831968424130
 11
759.242907093417
 21
147.471932966858
  0
LINE
  5
584
100
AcDbEntity
  8
0
100
AcDbLine
 62
     2
  6
CONTINUOUS
 10
757.533369904503
 20
145.628752596300
 11
757.536373416607
 21
145.631756108403
  0
LINE
  5
585
100
AcDbEntity
  8
0
100
AcDbLine
 62
     2
  6
CONTINUOUS
 10
757.536373416607
 20
145.631756108403
 11
759.376550275062
 21
147.471932966858
  0
LINE
  5
586
100
AcDbEntity
  8
0
100
AcDbLine
 62
     2
  6
CONTINUOUS
 10
757.670016598251
 20
145.631756108403
 11
759.510193456706
 21
147.471932966858
  0
LINE
  5
587
100
AcDbEntity
  8
0
100
AcDbLine
 62
     2
  6
CONTINUOUS
 10
757.803659779895
 20
145.631756108403
 11
759.643836638350
 21
147.471932966858
  0
LINE
  5
588
100
AcDbEntity
  8
0
100
AcDbLine
 62
     2
  6
CONTINUOUS
 10
757.937302961539
 20
145.631756108403
 11
759.777479819994
 21
147.471932966858
  0
LINE
  5
589
100
AcDbEntity
  8
0
100
AcDbLine
 62
     2
  6
CONTINUOUS
 10
758.070946143184
 20
145.631756108403
 11
759.911123001639
 21
147.471932966858
  0
LINE
  5
58A
100
AcDbEntity
  8
0
100
AcDbLine
 62
     2
  6
CONTINUOUS
 10
759.423884282093
 20
146.851051065668
 11
758.204589324828
 21
145.631756108403
  0
LINE
  5
58B
100
AcDbEntity
  8
0
100
AcDbLine
 62
     2
  6
CONTINUOUS
 10
759.540766183283
 20
146.967932966858
 11
759.580428160330
 21
147.007594943906
  0
LINE
  5
58C
100
AcDbEntity
  8
0
100
AcDbLine
 62
     2
  6
CONTINUOUS
 10
759.580428160330
 20
147.007594943906
 11
760.044766183283
 21
147.471932966858
  0
LINE
  5
58D
100
AcDbEntity
  8
0
100
AcDbLine
 62
     2
  6
CONTINUOUS
 10
759.354311637526
 20
146.647835239457
 11
758.338232506472
 21
145.631756108403
  0
LINE
  5
58E
100
AcDbEntity
  8
0
100
AcDbLine
 62
     2
  6
CONTINUOUS
 10
759.674409364927
 20
146.967932966858
 11
760.178409364927
 21
147.471932966858
  0
LINE
  5
58F
100
AcDbEntity
  8
0
100
AcDbLine
 62
     2
  6
CONTINUOUS
 10
759.284738992960
 20
146.444619413246
 11
758.471875688117
 21
145.631756108403
  0
LINE
  5
590
100
AcDbEntity
  8
0
100
AcDbLine
 62
     2
  6
CONTINUOUS
 10
759.808052546572
 20
146.967932966858
 11
760.312052546572
 21
147.471932966858
  0
LINE
  5
591
100
AcDbEntity
  8
0
100
AcDbLine
 62
     2
  6
CONTINUOUS
 10
759.215166348393
 20
146.241403587036
 11
758.605518869761
 21
145.631756108403
  0
LINE
  5
592
100
AcDbEntity
  8
0
100
AcDbLine
 62
     2
  6
CONTINUOUS
 10
759.941695728216
 20
146.967932966858
 11
760.445695728216
 21
147.471932966858
  0
LINE
  5
593
100
AcDbEntity
  8
0
100
AcDbLine
 62
     2
  6
CONTINUOUS
 10
757.849398182109
 20
144.741992239107
 11
757.911245914425
 21
144.803839971423
  0
LINE
  5
594
100
AcDbEntity
  8
0
100
AcDbLine
 62
     2
  6
CONTINUOUS
 10
759.145593703827
 20
146.038187760825
 11
758.739162051405
 21
145.631756108403
  0
LINE
  5
595
100
AcDbEntity
  8
0
100
AcDbLine
 62
     2
  6
CONTINUOUS
 10
760.075338909860
 20
146.967932966858
 11
760.579338909860
 21
147.471932966858
  0
LINE
  5
596
100
AcDbEntity
  8
0
100
AcDbLine
 62
     2
  6
CONTINUOUS
 10
757.849398182109
 20
144.608349057463
 11
758.044889096069
 21
144.803839971423
  0
LINE
  5
597
100
AcDbEntity
  8
0
100
AcDbLine
 62
     2
  6
CONTINUOUS
 10
759.076021059260
 20
145.834971934614
 11
758.872805233049
 21
145.631756108403
  0
LINE
  5
598
100
AcDbEntity
  8
0
100
AcDbLine
 62
     2
  6
CONTINUOUS
 10
760.208982091504
 20
146.967932966858
 11
760.712982091504
 21
147.471932966858
  0
LINE
  5
599
100
AcDbEntity
  8
0
100
AcDbLine
 62
     2
  6
CONTINUOUS
 10
757.849398182109
 20
144.474705875818
 11
758.178532277714
 21
144.803839971423
  0
LINE
  5
59A
100
AcDbEntity
  8
0
100
AcDbLine
 62
     2
  6
CONTINUOUS
 10
760.342625273149
 20
146.967932966858
 11
760.846625273149
 21
147.471932966858
  0
LINE
  5
59B
100
AcDbEntity
  8
0
100
AcDbLine
 62
     2
  6
CONTINUOUS
 10
757.849398182109
 20
144.341062694174
 11
758.312175459358
 21
144.803839971423
  0
LINE
  5
59C
100
AcDbEntity
  8
0
100
AcDbLine
 62
     2
  6
CONTINUOUS
 10
760.476268454793
 20
146.967932966858
 11
760.980268454793
 21
147.471932966858
  0
LINE
  5
59D
100
AcDbEntity
  8
0
100
AcDbLine
 62
     2
  6
CONTINUOUS
 10
759.700518951771
 20
146.058540282192
 11
759.903734777982
 21
146.261756108403
  0
LINE
  5
59E
100
AcDbEntity
  8
0
100
AcDbLine
 62
     2
  6
CONTINUOUS
 10
760.609911636437
 20
146.967932966858
 11
761.113911636437
 21
147.471932966858
  0
LINE
  5
59F
100
AcDbEntity
  8
0
100
AcDbLine
 62
     2
  6
CONTINUOUS
 10
759.630946307205
 20
145.855324455982
 11
760.037377959626
 21
146.261756108403
  0
LINE
  5
5A0
100
AcDbEntity
  8
0
100
AcDbLine
 62
     2
  6
CONTINUOUS
 10
760.743554818081
 20
146.967932966858
 11
761.247554818081
 21
147.471932966858
  0
LINE
  5
5A1
100
AcDbEntity
  8
0
100
AcDbLine
 62
     2
  6
CONTINUOUS
 10
758.083105004291
 20
144.173839971423
 11
758.713105004291
 21
144.803839971423
  0
LINE
  5
5A2
100
AcDbEntity
  8
0
100
AcDbLine
 62
     2
  6
CONTINUOUS
 10
759.561373662638
 20
145.652108629771
 11
760.171021141271
 21
146.261756108403
  0
LINE
  5
5A3
100
AcDbEntity
  8
0
100
AcDbLine
 62
     2
  6
CONTINUOUS
 10
760.877197999726
 20
146.967932966858
 11
760.999398182109
 21
147.090133149241
  0
LINE
  5
5A4
100
AcDbEntity
  8
0
100
AcDbLine
 62
     2
  6
CONTINUOUS
 10
760.999398182109
 20
147.090133149241
 11
761.381197999726
 21
147.471932966858
  0
LINE
  5
5A5
100
AcDbEntity
  8
0
100
AcDbLine
 62
     2
  6
CONTINUOUS
 10
758.216748185935
 20
144.173839971423
 11
758.846748185935
 21
144.803839971423
  0
LINE
  5
5A6
100
AcDbEntity
  8
0
100
AcDbLine
 62
     2
  6
CONTINUOUS
 10
759.674664322915
 20
145.631756108403
 11
760.304664322915
 21
146.261756108403
  0
LINE
  5
5A7
100
AcDbEntity
  8
0
100
AcDbLine
 62
     2
  6
CONTINUOUS
 10
760.999398182109
 20
146.956489967597
 11
761.010841181370
 21
146.967932966858
  0
LINE
  5
5A8
100
AcDbEntity
  8
0
100
AcDbLine
 62
     2
  6
CONTINUOUS
 10
761.010841181370
 20
146.967932966858
 11
761.514841181370
 21
147.471932966858
  0
LINE
  5
5A9
100
AcDbEntity
  8
0
100
AcDbLine
 62
     2
  6
CONTINUOUS
 10
758.350391367579
 20
144.173839971423
 11
758.980391367579
 21
144.803839971423
  0
LINE
  5
5AA
100
AcDbEntity
  8
0
100
AcDbLine
 62
     2
  6
CONTINUOUS
 10
759.808307504559
 20
145.631756108403
 11
760.438307504559
 21
146.261756108403
  0
LINE
  5
5AB
100
AcDbEntity
  8
0
100
AcDbLine
 62
     2
  6
CONTINUOUS
 10
760.999398182109
 20
146.822846785953
 11
761.144484363014
 21
146.967932966858
  0
LINE
  5
5AC
100
AcDbEntity
  8
0
100
AcDbLine
 62
     2
  6
CONTINUOUS
 10
761.144484363014
 20
146.967932966858
 11
761.648484363014
 21
147.471932966858
  0
LINE
  5
5AD
100
AcDbEntity
  8
0
100
AcDbLine
 62
     2
  6
CONTINUOUS
 10
758.484034549223
 20
144.173839971423
 11
759.114034549223
 21
144.803839971423
  0
LINE
  5
5AE
100
AcDbEntity
  8
0
100
AcDbLine
 62
     2
  6
CONTINUOUS
 10
759.941950686204
 20
145.631756108403
 11
760.571950686204
 21
146.261756108403
  0
LINE
  5
5AF
100
AcDbEntity
  8
0
100
AcDbLine
 62
     2
  6
CONTINUOUS
 10
760.999398182109
 20
146.689203604309
 11
761.278127544658
 21
146.967932966858
  0
LINE
  5
5B0
100
AcDbEntity
  8
0
100
AcDbLine
 62
     2
  6
CONTINUOUS
 10
761.278127544658
 20
146.967932966858
 11
761.782127544658
 21
147.471932966858
  0
LINE
  5
5B1
100
AcDbEntity
  8
0
100
AcDbLine
 62
     2
  6
CONTINUOUS
 10
758.617677730868
 20
144.173839971423
 11
759.247677730868
 21
144.803839971423
  0
LINE
  5
5B2
100
AcDbEntity
  8
0
100
AcDbLine
 62
     2
  6
CONTINUOUS
 10
760.075593867848
 20
145.631756108403
 11
760.705593867848
 21
146.261756108403
  0
LINE
  5
5B3
100
AcDbEntity
  8
0
100
AcDbLine
 62
     2
  6
CONTINUOUS
 10
760.999398182109
 20
146.555560422664
 11
761.411770726303
 21
146.967932966858
  0
LINE
  5
5B4
100
AcDbEntity
  8
0
100
AcDbLine
 62
     2
  6
CONTINUOUS
 10
761.411770726303
 20
146.967932966858
 11
761.915770726303
 21
147.471932966858
  0
LINE
  5
5B5
100
AcDbEntity
  8
0
100
AcDbLine
 62
     2
  6
CONTINUOUS
 10
758.751320912512
 20
144.173839971423
 11
759.381320912512
 21
144.803839971423
  0
LINE
  5
5B6
100
AcDbEntity
  8
0
100
AcDbLine
 62
     2
  6
CONTINUOUS
 10
760.209237049492
 20
145.631756108403
 11
760.839237049492
 21
146.261756108403
  0
LINE
  5
5B7
100
AcDbEntity
  8
0
100
AcDbLine
 62
     2
  6
CONTINUOUS
 10
760.999398182109
 20
146.421917241020
 11
762.049413907947
 21
147.471932966858
  0
LINE
  5
5B8
100
AcDbEntity
  8
0
100
AcDbLine
 62
     2
  6
CONTINUOUS
 10
758.884964094156
 20
144.173839971423
 11
759.514964094156
 21
144.803839971423
  0
LINE
  5
5B9
100
AcDbEntity
  8
0
100
AcDbLine
 62
     2
  6
CONTINUOUS
 10
760.342880231136
 20
145.631756108403
 11
760.972880231136
 21
146.261756108403
  0
LINE
  5
5BA
100
AcDbEntity
  8
0
100
AcDbLine
 62
     2
  6
CONTINUOUS
 10
760.999398182109
 20
146.288274059376
 11
762.183057089591
 21
147.471932966858
  0
LINE
  5
5BB
100
AcDbEntity
  8
0
100
AcDbLine
 62
     2
  6
CONTINUOUS
 10
759.018607275801
 20
144.173839971423
 11
759.648607275800
 21
144.803839971423
  0
LINE
  5
5BC
100
AcDbEntity
  8
0
100
AcDbLine
 62
     2
  6
CONTINUOUS
 10
760.476523412781
 20
145.631756108403
 11
761.106523412781
 21
146.261756108403
  0
LINE
  5
5BD
100
AcDbEntity
  8
0
100
AcDbLine
 62
     2
  6
CONTINUOUS
 10
761.106523412781
 20
146.261756108403
 11
762.316700271236
 21
147.471932966858
  0
LINE
  5
5BE
100
AcDbEntity
  8
0
100
AcDbLine
 62
     2
  6
CONTINUOUS
 10
759.152250457445
 20
144.173839971423
 11
759.782250457445
 21
144.803839971423
  0
LINE
  5
5BF
100
AcDbEntity
  8
0
100
AcDbLine
 62
     2
  6
CONTINUOUS
 10
760.610166594425
 20
145.631756108403
 11
761.240166594425
 21
146.261756108403
  0
LINE
  5
5C0
100
AcDbEntity
  8
0
100
AcDbLine
 62
     2
  6
CONTINUOUS
 10
761.240166594425
 20
146.261756108403
 11
762.450343452880
 21
147.471932966858
  0
LINE
  5
5C1
100
AcDbEntity
  8
0
100
AcDbLine
 62
     2
  6
CONTINUOUS
 10
759.285893639089
 20
144.173839971423
 11
759.915893639089
 21
144.803839971423
  0
LINE
  5
5C2
100
AcDbEntity
  8
0
100
AcDbLine
 62
     2
  6
CONTINUOUS
 10
760.743809776069
 20
145.631756108403
 11
761.373809776069
 21
146.261756108403
  0
LINE
  5
5C3
100
AcDbEntity
  8
0
100
AcDbLine
 62
     2
  6
CONTINUOUS
 10
761.373809776069
 20
146.261756108403
 11
762.574398182109
 21
147.462344514443
  0
LINE
  5
5C4
100
AcDbEntity
  8
0
100
AcDbLine
 62
     2
  6
CONTINUOUS
 10
759.419536820733
 20
144.173839971423
 11
760.049536820733
 21
144.803839971423
  0
LINE
  5
5C5
100
AcDbEntity
  8
0
100
AcDbLine
 62
     2
  6
CONTINUOUS
 10
760.877452957713
 20
145.631756108403
 11
762.574398182109
 21
147.328701332799
  0
LINE
  5
5C6
100
AcDbEntity
  8
0
100
AcDbLine
 62
     2
  6
CONTINUOUS
 10
759.553180002378
 20
144.173839971423
 11
760.183180002378
 21
144.803839971423
  0
LINE
  5
5C7
100
AcDbEntity
  8
0
100
AcDbLine
 62
     2
  6
CONTINUOUS
 10
760.999398182109
 20
145.620058151154
 11
761.011096139358
 21
145.631756108403
  0
LINE
  5
5C8
100
AcDbEntity
  8
0
100
AcDbLine
 62
     2
  6
CONTINUOUS
 10
761.011096139358
 20
145.631756108403
 11
762.574398182109
 21
147.195058151154
  0
LINE
  5
5C9
100
AcDbEntity
  8
0
100
AcDbLine
 62
     2
  6
CONTINUOUS
 10
759.686823184022
 20
144.173839971423
 11
760.316823184022
 21
144.803839971423
  0
LINE
  5
5CA
100
AcDbEntity
  8
0
100
AcDbLine
 62
     2
  6
CONTINUOUS
 10
760.999398182109
 20
145.486414969510
 11
761.144739321002
 21
145.631756108403
  0
LINE
  5
5CB
100
AcDbEntity
  8
0
100
AcDbLine
 62
     2
  6
CONTINUOUS
 10
761.144739321002
 20
145.631756108403
 11
762.574398182109
 21
147.061414969510
  0
LINE
  5
5CC
100
AcDbEntity
  8
0
100
AcDbLine
 62
     2
  6
CONTINUOUS
 10
759.820466365666
 20
144.173839971423
 11
760.450466365666
 21
144.803839971423
  0
LINE
  5
5CD
100
AcDbEntity
  8
0
100
AcDbLine
 62
     2
  6
CONTINUOUS
 10
760.999398182109
 20
145.352771787866
 11
761.278382502646
 21
145.631756108403
  0
LINE
  5
5CE
100
AcDbEntity
  8
0
100
AcDbLine
 62
     2
  6
CONTINUOUS
 10
761.278382502646
 20
145.631756108403
 11
762.574398182109
 21
146.927771787866
  0
LINE
  5
5CF
100
AcDbEntity
  8
0
100
AcDbLine
 62
     2
  6
CONTINUOUS
 10
759.954109547311
 20
144.173839971423
 11
760.584109547310
 21
144.803839971423
  0
LINE
  5
5D0
100
AcDbEntity
  8
0
100
AcDbLine
 62
     2
  6
CONTINUOUS
 10
760.999398182109
 20
145.219128606222
 11
761.412025684290
 21
145.631756108403
  0
LINE
  5
5D1
100
AcDbEntity
  8
0
100
AcDbLine
 62
     2
  6
CONTINUOUS
 10
761.412025684290
 20
145.631756108403
 11
762.574398182109
 21
146.794128606222
  0
LINE
  5
5D2
100
AcDbEntity
  8
0
100
AcDbLine
 62
     2
  6
CONTINUOUS
 10
760.087752728955
 20
144.173839971423
 11
760.717752728955
 21
144.803839971423
  0
LINE
  5
5D3
100
AcDbEntity
  8
0
100
AcDbLine
 62
     2
  6
CONTINUOUS
 10
760.999398182109
 20
145.085485424577
 11
762.574398182109
 21
146.660485424577
  0
LINE
  5
5D4
100
AcDbEntity
  8
0
100
AcDbLine
 62
     2
  6
CONTINUOUS
 10
760.221395910599
 20
144.173839971423
 11
760.851395910599
 21
144.803839971423
  0
LINE
  5
5D5
100
AcDbEntity
  8
0
100
AcDbLine
 62
     2
  6
CONTINUOUS
 10
760.999398182109
 20
144.951842242933
 11
762.574398182109
 21
146.526842242933
  0
LINE
  5
5D6
100
AcDbEntity
  8
0
100
AcDbLine
 62
     2
  6
CONTINUOUS
 10
760.355039092243
 20
144.173839971423
 11
760.985039092243
 21
144.803839971423
  0
LINE
  5
5D7
100
AcDbEntity
  8
0
100
AcDbLine
 62
     2
  6
CONTINUOUS
 10
760.999398182109
 20
144.818199061289
 11
762.574398182109
 21
146.393199061289
  0
LINE
  5
5D8
100
AcDbEntity
  8
0
100
AcDbLine
 62
     2
  6
CONTINUOUS
 10
760.488682273888
 20
144.173839971423
 11
760.999398182109
 21
144.684555879644
  0
LINE
  5
5D9
100
AcDbEntity
  8
0
100
AcDbLine
 62
     2
  6
CONTINUOUS
 10
760.999398182109
 20
144.684555879644
 11
761.118682273888
 21
144.803839971423
  0
LINE
  5
5DA
100
AcDbEntity
  8
0
100
AcDbLine
 62
     2
  6
CONTINUOUS
 10
761.118682273888
 20
144.803839971423
 11
762.574398182109
 21
146.259555879644
  0
LINE
  5
5DB
100
AcDbEntity
  8
0
100
AcDbLine
 62
     2
  6
CONTINUOUS
 10
760.622325455532
 20
144.173839971423
 11
761.252325455532
 21
144.803839971423
  0
LINE
  5
5DC
100
AcDbEntity
  8
0
100
AcDbLine
 62
     2
  6
CONTINUOUS
 10
761.252325455532
 20
144.803839971423
 11
762.141688994080
 21
145.693203509971
  0
LINE
  5
5DD
100
AcDbEntity
  8
0
100
AcDbLine
 62
     2
  6
CONTINUOUS
 10
762.141688994080
 20
145.693203509971
 11
762.574398182109
 21
146.125912698000
  0
LINE
  5
5DE
100
AcDbEntity
  8
0
100
AcDbLine
 62
     2
  6
CONTINUOUS
 10
760.755968637176
 20
144.173839971423
 11
762.275332175724
 21
145.693203509971
  0
LINE
  5
5DF
100
AcDbEntity
  8
0
100
AcDbLine
 62
     2
  6
CONTINUOUS
 10
762.275332175724
 20
145.693203509971
 11
762.574398182109
 21
145.992269516356
  0
LINE
  5
5E0
100
AcDbEntity
  8
0
100
AcDbLine
 62
     2
  6
CONTINUOUS
 10
760.889611818820
 20
144.173839971423
 11
762.408975357369
 21
145.693203509971
  0
LINE
  5
5E1
100
AcDbEntity
  8
0
100
AcDbLine
 62
     2
  6
CONTINUOUS
 10
762.408975357369
 20
145.693203509971
 11
762.574398182109
 21
145.858626334712
  0
LINE
  5
5E2
100
AcDbEntity
  8
0
100
AcDbLine
 62
     2
  6
CONTINUOUS
 10
761.023255000465
 20
144.173839971423
 11
762.542618539013
 21
145.693203509971
  0
LINE
  5
5E3
100
AcDbEntity
  8
0
100
AcDbLine
 62
     2
  6
CONTINUOUS
 10
762.542618539013
 20
145.693203509971
 11
762.574398182109
 21
145.724983153067
  0
LINE
  5
5E4
100
AcDbEntity
  8
0
100
AcDbLine
 62
     2
  6
CONTINUOUS
 10
761.156898182109
 20
144.173839971423
 11
762.574398182109
 21
145.591339971423
  0
LINE
  5
5E5
100
AcDbEntity
  8
0
100
AcDbLine
 62
     2
  6
CONTINUOUS
 10
772.002859235198
 20
146.243432966858
 11
771.633982535963
 21
145.266932966858
  0
LINE
  5
5E6
100
AcDbEntity
  8
0
100
AcDbLine
 62
     2
  6
CONTINUOUS
 10
773.641465004429
 20
146.904932966858
 11
773.022704089582
 21
145.266932966858
  0
LINE
  5
5E7
100
AcDbEntity
  8
0
100
AcDbLine
 62
     2
  6
CONTINUOUS
 10
768.092526729020
 20
147.471932966858
 11
765.895730500488
 21
145.734931297786
  0
LINE
  5
5E8
100
AcDbEntity
  8
0
100
AcDbLine
 62
     2
  6
CONTINUOUS
 10
763.518967599231
 20
145.734931297786
 11
765.895730500488
 21
145.734931297786
  0
LINE
  5
5E9
100
AcDbEntity
  8
0
100
AcDbLine
 62
     2
  6
CONTINUOUS
 10
760.999398182109
 20
146.957024685953
 11
761.010306463014
 21
146.967932966858
  0
LINE
  5
5EA
100
AcDbEntity
  8
0
100
AcDbLine
 62
     2
  6
CONTINUOUS
 10
760.999398182109
 20
146.244261050517
 11
761.016893239995
 21
146.261756108403
  0
LINE
  5
5EB
100
AcDbEntity
  8
0
100
AcDbLine
 62
     2
  6
CONTINUOUS
 10
762.564456459188
 20
145.581932966858
 11
762.574398182109
 21
145.591874689780
  0
LINE
  5
5EC
100
AcDbEntity
  8
0
100
AcDbLine
 62
     2
  6
CONTINUOUS
 10
761.245458918182
 20
144.173839971423
 11
761.248416350851
 21
144.176797404093
  0
LINE
  5
5ED
100
AcDbEntity
  8
0
100
AcDbLine
 62
     2
  6
CONTINUOUS
 10
762.567463362808
 20
145.451296688835
 11
762.574398182109
 21
145.458231508135
  0
LINE
  5
5EE
100
AcDbEntity
  8
0
100
AcDbLine
 62
     2
  6
CONTINUOUS
 10
762.561536659015
 20
145.400822257827
 11
762.574398182109
 21
145.413683780921
  0
LINE
  5
5EF
100
AcDbEntity
  8
0
100
AcDbLine
 62
     2
  6
CONTINUOUS
 10
773.641465004429
 20
144.803839971423
 11
773.326465004429
 21
144.173839971423
  0
LINE
  5
5F0
100
AcDbEntity
  8
0
100
AcDbLine
 62
     2
  6
CONTINUOUS
 10
770.806465004429
 20
144.803839971423
 11
770.806465004429
 21
146.243432966858
  0
LINE
  5
5F1
100
AcDbEntity
  8
0
100
AcDbLine
 62
     2
  6
CONTINUOUS
 10
773.022704089582
 20
145.266932966858
 11
771.633982535963
 21
145.266932966858
  0
LINE
  5
5F2
100
AcDbEntity
  8
0
100
AcDbLine
 62
     2
  6
CONTINUOUS
 10
770.806465004429
 20
146.904932966858
 11
770.806465004429
 21
147.471932966858
  0
LINE
  5
5F3
100
AcDbEntity
  8
0
100
AcDbLine
 62
     2
  6
CONTINUOUS
 10
768.916465004429
 20
146.243432966858
 11
768.821965004429
 21
146.904932966858
  0
LINE
  5
5F4
100
AcDbEntity
  8
0
100
AcDbLine
 62
     2
  6
CONTINUOUS
 10
769.294465004429
 20
146.243432966858
 11
768.916465004429
 21
146.243432966858
  0
LINE
  5
5F5
100
AcDbEntity
  8
0
100
AcDbLine
 62
     2
  6
CONTINUOUS
 10
772.002859235198
 20
146.243432966858
 11
770.806465004429
 21
146.243432966858
  0
LINE
  5
5F6
100
AcDbEntity
  8
0
100
AcDbLine
 62
     2
  6
CONTINUOUS
 10
768.821965004429
 20
146.904932966858
 11
769.294465004429
 21
146.904932966858
  0
LINE
  5
5F7
100
AcDbEntity
  8
0
100
AcDbLine
 62
     2
  6
CONTINUOUS
 10
773.641465004429
 20
146.904932966858
 11
770.806465004429
 21
146.904932966858
  0
LINE
  5
5F8
100
AcDbEntity
  8
0
100
AcDbLine
 62
     2
  6
CONTINUOUS
 10
765.060219685571
 20
145.318391335014
 11
765.060219685571
 21
144.173839971423
  0
LINE
  5
5F9
100
AcDbEntity
  8
0
100
AcDbLine
 62
     2
  6
CONTINUOUS
 10
763.518967599231
 20
145.734931297786
 11
765.690219685571
 21
147.471932966858
  0
LINE
  5
5FA
100
AcDbEntity
  8
0
100
AcDbLine
 62
     2
  6
CONTINUOUS
 10
768.092526729020
 20
147.471932966858
 11
765.690219685571
 21
147.471932966858
  0
LINE
  5
5FB
100
AcDbEntity
  8
0
100
AcDbLine
 62
     2
  6
CONTINUOUS
 10
757.849398182109
 20
144.803839971423
 11
757.849398182109
 21
144.173839971423
  0
LINE
  5
5FC
100
AcDbEntity
  8
0
100
AcDbLine
 62
     2
  6
CONTINUOUS
 10
759.770091596338
 20
146.261756108403
 11
759.554405806042
 21
145.631756108403
  0
LINE
  5
5FD
100
AcDbEntity
  8
0
100
AcDbLine
 62
     2
  6
CONTINUOUS
 10
759.463899782457
 20
146.967932966858
 11
759.006448414694
 21
145.631756108403
  0
LINE
  5
5FE
100
AcDbEntity
  8
0
100
AcDbLine
 62
     2
  6
CONTINUOUS
 10
759.770091596338
 20
146.261756108403
 11
760.999398182109
 21
146.261756108403
  0
LINE
  5
5FF
100
AcDbEntity
  8
0
100
AcDbLine
 62
     2
  6
CONTINUOUS
 10
759.463899782457
 20
146.967932966858
 11
760.999398182109
 21
146.967932966858
  0
LINE
  5
600
100
AcDbEntity
  8
0
100
AcDbLine
 62
     2
  6
CONTINUOUS
 10
760.999398182109
 20
146.967932966858
 11
760.999398182109
 21
146.261756108403
  0
LINE
  5
601
100
AcDbEntity
  8
0
100
AcDbLine
 62
     2
  6
CONTINUOUS
 10
760.999398182109
 20
145.631756108403
 11
760.999398182109
 21
144.803839971423
  0
LINE
  5
602
100
AcDbEntity
  8
0
100
AcDbLine
 62
     2
  6
CONTINUOUS
 10
759.554405806042
 20
145.631756108403
 11
760.999398182109
 21
145.631756108403
  0
LINE
  5
603
100
AcDbEntity
  8
0
100
AcDbLine
 62
     2
  6
CONTINUOUS
 10
757.849398182109
 20
144.803839971423
 11
760.999398182109
 21
144.803839971423
  0
LINE
  5
604
100
AcDbEntity
  8
0
100
AcDbLine
 62
     2
  6
CONTINUOUS
 10
770.806465004429
 20
147.471932966858
 11
769.294465004429
 21
147.471932966858
  0
LINE
  5
605
100
AcDbEntity
  8
0
100
AcDbLine
 62
     2
  6
CONTINUOUS
 10
774.309273348004
 20
146.034177936241
 11
774.309273348004
 21
145.273527280316
  0
LINE
  5
606
100
AcDbEntity
  8
0
100
AcDbLine
 62
     2
  6
CONTINUOUS
 10
769.294465004429
 20
146.904932966858
 11
769.294465004429
 21
147.471932966858
  0
LINE
  5
607
100
AcDbEntity
  8
0
100
AcDbLine
 62
     2
  6
CONTINUOUS
 10
766.143447707133
 20
145.318391335014
 11
765.060219685571
 21
145.318391335014
  0
LINE
  5
608
100
AcDbEntity
  8
0
100
AcDbLine
 62
     2
  6
CONTINUOUS
 10
762.574398182109
 20
145.591339971423
 11
762.574398182109
 21
147.471932966858
  0
LINE
  5
609
100
AcDbEntity
  8
0
100
AcDbLine
 62
     2
  6
CONTINUOUS
 10
759.006448414694
 20
145.631756108403
 11
757.534398182109
 21
145.631756108403
  0
LINE
  5
60A
100
AcDbEntity
  8
0
100
AcDbLine
 62
     2
  6
CONTINUOUS
 10
757.534398182109
 20
145.631756108403
 11
758.164398182109
 21
147.471932966858
  0
ARC
  5
60B
100
AcDbEntity
  8
0
100
AcDbCircle
 62
     2
  6
CONTINUOUS
 10
761.156898182109
 20
145.591339971423
 40
1.417500000000
100
AcDbArc
 50
269.999999985475
 51
359.999999980633
  0
LINE
  5
60C
100
AcDbEntity
  8
0
100
AcDbLine
 62
     2
  6
CONTINUOUS
 10
761.156898182109
 20
144.173839971423
 11
757.849398182109
 21
144.173839971423
  0
LINE
  5
60D
100
AcDbEntity
  8
0
100
AcDbLine
 62
     2
  6
CONTINUOUS
 10
766.635219685571
 20
145.707234294709
 11
766.143447707133
 21
145.318391335014
  0
LINE
  5
60E
100
AcDbEntity
  8
0
100
AcDbLine
 62
     2
  6
CONTINUOUS
 10
766.635219685571
 20
144.173839971423
 11
765.060219685571
 21
144.173839971423
  0
LINE
  5
60F
100
AcDbEntity
  8
0
100
AcDbLine
 62
     2
  6
CONTINUOUS
 10
769.294465004429
 20
145.591339971423
 11
769.294465004429
 21
146.243432966858
  0
LINE
  5
610
100
AcDbEntity
  8
0
100
AcDbLine
 62
     2
  6
CONTINUOUS
 10
770.711965004429
 20
144.173839971423
 11
773.326465004429
 21
144.173839971423
  0
LINE
  5
611
100
AcDbEntity
  8
0
100
AcDbLine
 62
     2
  6
CONTINUOUS
 10
774.494469690977
 20
145.273527280316
 11
775.255120346902
 21
146.034177936241
  0
LINE
  5
612
100
AcDbEntity
  8
0
100
AcDbLine
 62
     2
  6
CONTINUOUS
 10
778.246773348003
 20
145.273527280316
 11
774.309273348004
 21
145.273527280316
  0
LINE
  5
613
100
AcDbEntity
  8
0
100
AcDbLine
 62
     2
  6
CONTINUOUS
 10
778.561773348003
 20
146.034177936241
 11
774.309273348004
 21
146.034177936241
  0
LINE
  5
614
100
AcDbEntity
  8
0
100
AcDbLine
 62
     2
  6
CONTINUOUS
 10
770.806465004429
 20
144.803839971423
 11
773.641465004429
 21
144.803839971423
  0
ARC
  5
615
100
AcDbEntity
  8
0
100
AcDbCircle
 62
     2
  6
CONTINUOUS
 10
770.711965004429
 20
145.591339971423
 40
1.417500000000
100
AcDbArc
 50
179.999999990317
 51
269.999999985475
  0
LINE
  5
616
100
AcDbEntity
  8
0
100
AcDbLine
 62
     2
  6
CONTINUOUS
 10
766.635219685571
 20
145.707234294709
 11
766.635219685571
 21
144.173839971423
  0
LINE
  5
617
100
AcDbEntity
  8
0
100
AcDbLine
 62
     2
  6
CONTINUOUS
 10
758.164398182109
 20
147.471932966858
 11
762.574398182109
 21
147.471932966858
  0
TEXT
  5
618
100
AcDbEntity
  8
0
100
AcDbText
 62
     0
  6
CONTINUOUS
 10
632.996503889561
 20
193.891357421875
 40
3.000000000000
 41
1.000000000000
 50
0.000000000000
  1
A
100
AcDbText
  0
TEXT
  5
619
100
AcDbEntity
  8
0
100
AcDbText
 62
     0
  6
CONTINUOUS
 10
641.996503889561
 20
193.891357421875
 40
3.000000000000
 41
1.000000000000
 50
0.000000000000
  1
B
100
AcDbText
  0
TEXT
  5
61A
100
AcDbEntity
  8
0
100
AcDbText
 62
     0
  6
CONTINUOUS
 10
677.996503889561
 20
193.891357421875
 40
3.000000000000
 41
1.000000000000
 50
0.000000000000
  1
F
100
AcDbText
  0
TEXT
  5
61B
100
AcDbEntity
  8
0
100
AcDbText
 62
     0
  6
CONTINUOUS
 10
668.996503889561
 20
193.891357421875
 40
3.000000000000
 41
1.000000000000
 50
0.000000000000
  1
E
100
AcDbText
  0
TEXT
  5
61C
100
AcDbEntity
  8
0
100
AcDbText
 62
     0
  6
CONTINUOUS
 10
659.996503889561
 20
193.891357421875
 40
3.000000000000
 41
1.000000000000
 50
0.000000000000
  1
D
100
AcDbText
  0
TEXT
  5
61D
100
AcDbEntity
  8
0
100
AcDbText
 62
     0
  6
CONTINUOUS
 10
645.449545741081
 20
170.224143981934
 40
2.000000000000
 41
0.750000000000
 50
0.000000000000
  1
1.5
100
AcDbText
  0
TEXT
  5
61E
100
AcDbEntity
  8
0
100
AcDbText
 62
     0
  6
CONTINUOUS
 10
621.507293701172
 20
170.122947692871
 40
2.500000000000
 41
0.800000000000
 50
0.000000000000
  1
その他
100
AcDbText
  0
TEXT
  5
61F
100
AcDbEntity
  8
0
100
AcDbText
 62
     0
  6
CONTINUOUS
 10
621.203849792480
 20
173.136123657227
 40
2.500000000000
 41
0.800000000000
 50
0.000000000000
  1
直角
100
AcDbText
  0
TEXT
  5
620
100
AcDbEntity
  8
0
100
AcDbText
 62
     0
  6
CONTINUOUS
 10
645.362833857536
 20
173.257774353027
 40
2.000000000000
 41
0.750000000000
 50
0.000000000000
  1
1.0
100
AcDbText
  0
TEXT
  5
621
100
AcDbEntity
  8
0
100
AcDbText
 62
     0
  6
CONTINUOUS
 10
668.455223083496
 20
170.403236389160
 40
2.000000000000
 41
0.750000000000
 50
0.000000000000
  1
3.0
100
AcDbText
  0
TEXT
  5
622
100
AcDbEntity
  8
0
100
AcDbText
 62
     0
  6
CONTINUOUS
 10
668.254486083984
 20
173.138381958008
 40
2.000000000000
 41
0.750000000000
 50
0.000000000000
  1
2.0
100
AcDbText
  0
TEXT
  5
623
100
AcDbEntity
  8
0
100
AcDbText
 62
     0
  6
CONTINUOUS
 10
630.326301574707
 20
176.459632873535
 40
2.000000000000
 41
0.750000000000
 50
0.000000000000
  1
0.25 0.4  0.6  0.8  1.5
100
AcDbText
  0
TEXT
  5
624
100
AcDbEntity
  8
0
100
AcDbText
 62
     0
  6
CONTINUOUS
 10
630.322805061936
 20
179.390151977539
 40
2.000000000000
 41
0.750000000000
 50
0.000000000000
  1
0.18 0.2  0.4  0.6  1.0
100
AcDbText
  0
TEXT
  5
625
100
AcDbEntity
  8
0
100
AcDbText
 62
     0
  6
CONTINUOUS
 10
630.326301574707
 20
182.222984313965
 40
2.000000000000
 41
0.750000000000
 50
0.000000000000
  1
0.12 0.15 0.25 0.35 0.6
100
AcDbText
  0
TEXT
  5
626
100
AcDbEntity
  8
0
100
AcDbText
 62
     0
  6
CONTINUOUS
 10
630.326301574707
 20
185.251182556152
 40
2.000000000000
 41
0.750000000000
 50
0.000000000000
  1
0.1  0.1  0.15 0.2  0.4
100
AcDbText
  0
TEXT
  5
627
100
AcDbEntity
  8
0
100
AcDbText
 62
     0
  6
CONTINUOUS
 10
630.423984527588
 20
185.837287902832
 40
2.000000000000
 41
0.750000000000
 50
0.000000000000
  1

100
AcDbText
  0
TEXT
  5
628
100
AcDbEntity
  8
0
100
AcDbText
 62
     0
  6
CONTINUOUS
 10
630.399999618530
 20
186.000000000000
 40
2.000000000000
 41
0.750000000000
 50
0.000000000000
  1

100
AcDbText
  0
TEXT
  5
629
100
AcDbEntity
  8
0
100
AcDbText
 62
     0
  6
CONTINUOUS
 10
668.271654129028
 20
188.659634515643
 40
2.000000000000
 41
0.750000000000
 50
0.000000000000
  1
0.2
100
AcDbText
  0
TEXT
  5
62A
100
AcDbEntity
  8
0
100
AcDbText
 62
     0
  6
CONTINUOUS
 10
649.246639862657
 20
188.757317468524
 40
2.000000000000
 41
0.750000000000
 50
0.000000000000
  1
0.1
100
AcDbText
  0
TEXT
  5
62B
100
AcDbEntity
  8
0
100
AcDbText
 62
     0
  6
CONTINUOUS
 10
649.255503177643
 20
191.698322296143
 40
2.000000000000
 41
0.750000000000
 50
0.000000000000
  1
0.05
100
AcDbText
  0
TEXT
  5
62C
100
AcDbEntity
  8
0
100
AcDbText
 62
     0
  6
CONTINUOUS
 10
639.892081603408
 20
189.948429107666
 40
2.000000000000
 41
0.750000000000
 50
0.000000000000
  1
0.05
100
AcDbText
  0
TEXT
  5
62D
100
AcDbEntity
  8
0
100
AcDbText
 62
     0
  6
CONTINUOUS
 10
630.326301574707
 20
189.940010070801
 40
2.000000000000
 41
0.750000000000
 50
0.000000000000
  1
0.05
100
AcDbText
  0
TEXT
  5
62E
100
AcDbEntity
  8
0
100
AcDbText
 62
     0
  6
CONTINUOUS
 10
609.882827758789
 20
188.626556396484
 40
2.000000000000
 41
0.750000000000
 50
0.000000000000
  1
3を越え　６以下
100
AcDbText
  0
TEXT
  5
62F
100
AcDbEntity
  8
0
100
AcDbText
 62
     0
  6
CONTINUOUS
 10
609.938484191895
 20
185.593151092529
 40
2.000000000000
 41
0.750000000000
 50
0.000000000000
  1
６を越え　３０以下
100
AcDbText
  0
TEXT
  5
630
100
AcDbEntity
  8
0
100
AcDbText
 62
     0
  6
CONTINUOUS
 10
609.230659484863
 20
176.476421356201
 40
2.000000000000
 41
0.750000000000
 50
0.000000000000
  1
315以上
100
AcDbText
  0
TEXT
  5
631
100
AcDbEntity
  8
0
100
AcDbText
 62
     0
  6
CONTINUOUS
 10
609.210659027100
 20
179.482002258301
 40
2.000000000000
 41
0.750000000000
 50
0.000000000000
  1
120を越え315以下
100
AcDbText
  0
TEXT
  5
632
100
AcDbEntity
  8
0
100
AcDbText
 62
     0
  6
CONTINUOUS
 10
609.210659027100
 20
177.082000732422
 40
2.000000000000
 41
0.750000000000
 50
0.000000000000
  1

100
AcDbText
  0
TEXT
  5
633
100
AcDbEntity
  8
0
100
AcDbText
 62
     0
  6
CONTINUOUS
 10
609.074489593506
 20
182.459751129150
 40
2.000000000000
 41
0.750000000000
 50
0.000000000000
  1
３０を越え１２０以下
100
AcDbText
  0
TEXT
  5
634
100
AcDbEntity
  8
0
100
AcDbText
 62
     0
  6
CONTINUOUS
 10
610.789886474609
 20
182.487579345703
 40
2.500000000000
 41
0.800000000000
 50
0.000000000000
  1

100
AcDbText
  0
TEXT
  5
635
100
AcDbEntity
  8
0
100
AcDbText
 62
     0
  6
CONTINUOUS
 10
603.287799835205
 20
171.351066589355
 40
3.000000000000
 41
0.666666666667
 50
0.000000000000
  1
(%%p)
100
AcDbText
  0
TEXT
  5
636
100
AcDbEntity
  8
0
100
AcDbText
 62
     0
  6
CONTINUOUS
 10
603.287799835205
 20
168.151069641113
 40
3.000000000000
 41
0.666666666667
 50
0.000000000000
  1

100
AcDbText
  0
TEXT
  5
637
100
AcDbEntity
  8
0
100
AcDbText
 62
     0
  6
CONTINUOUS
 10
650.996503889561
 20
193.891357421875
 40
3.000000000000
 41
1.000000000000
 50
0.000000000000
  1
C
100
AcDbText
  0
TEXT
  5
638
100
AcDbEntity
  8
0
100
AcDbText
 62
     0
  6
CONTINUOUS
 10
612.340587615967
 20
193.263591766357
 40
2.500000000000
 41
1.000000000000
 50
0.000000000000
  1

100
AcDbText
  0
TEXT
  5
639
100
AcDbEntity
  8
0
100
AcDbText
 62
     0
  6
CONTINUOUS
 10
610.729892730713
 20
194.127124786377
 40
2.500000000000
 41
1.000000000000
 50
0.000000000000
  1
区分／等級
100
AcDbText
  0
TEXT
  5
63A
100
AcDbEntity
  8
0
100
AcDbText
 62
     0
  6
CONTINUOUS
 10
610.729892730713
 20
190.627124786377
 40
2.500000000000
 41
1.000000000000
 50
0.000000000000
  1

100
AcDbText
  0
TEXT
  5
63B
100
AcDbEntity
  8
0
100
AcDbText
 62
     0
  6
CONTINUOUS
 10
604.968624114990
 20
192.993488311768
 40
3.000000000000
 41
1.000000000000
 50
0.000000000000
  1

100
AcDbText
  0
TEXT
  5
63C
100
AcDbEntity
  8
0
100
AcDbText
 62
     0
  6
CONTINUOUS
 10
667.419338226318
 20
191.687832757831
 40
2.000000000000
 41
0.750000000000
 50
0.000000000000
  1
0.15
100
AcDbText
  0
TEXT
  5
63D
100
AcDbEntity
  8
0
100
AcDbText
 62
     0
  6
CONTINUOUS
 10
658.770037382841
 20
189.984645843506
 40
2.000000000000
 41
0.750000000000
 50
0.000000000000
  1
0.1
100
AcDbText
  0
TEXT
  5
63E
100
AcDbEntity
  8
0
100
AcDbText
 62
     0
  6
CONTINUOUS
 10
609.915554046631
 20
191.744789123535
 40
2.000000000000
 41
0.750000000000
 50
0.000000000000
  1
０を越え　３以下
100
AcDbText
  0
TEXT
  5
63F
100
AcDbEntity
  8
0
100
AcDbText
 62
     0
  6
CONTINUOUS
 10
604.968624114990
 20
192.993488311768
 40
3.000000000000
 41
1.000000000000
 50
0.000000000000
  1
許
100
AcDbText
  0
TEXT
  5
640
100
AcDbEntity
  8
0
100
AcDbText
 62
     0
  6
CONTINUOUS
 10
604.968624114990
 20
188.993488311768
 40
3.000000000000
 41
1.000000000000
 50
0.000000000000
  1
容
100
AcDbText
  0
TEXT
  5
641
100
AcDbEntity
  8
0
100
AcDbText
 62
     0
  6
CONTINUOUS
 10
604.968624114990
 20
184.993488311768
 40
3.000000000000
 41
1.000000000000
 50
0.000000000000
  1
差
100
AcDbText
  0
TEXT
  5
642
100
AcDbEntity
  8
0
100
AcDbText
 62
     0
  6
CONTINUOUS
 10
604.968624114990
 20
180.993488311768
 40
3.000000000000
 41
1.000000000000
 50
0.000000000000
  1
区
100
AcDbText
  0
TEXT
  5
643
100
AcDbEntity
  8
0
100
AcDbText
 62
     0
  6
CONTINUOUS
 10
604.968624114990
 20
176.993488311768
 40
3.000000000000
 41
1.000000000000
 50
0.000000000000
  1
分
100
AcDbText
  0
TEXT
  5
644
100
AcDbEntity
  8
0
100
AcDbText
 62
     0
  6
CONTINUOUS
 10
604.968624114990
 20
172.993484497070
 40
3.000000000000
 41
1.000000000000
 50
0.000000000000
  1

100
AcDbText
  0
TEXT
  5
645
100
AcDbEntity
  8
0
100
AcDbText
 62
     0
  6
CONTINUOUS
 10
609.309341430664
 20
171.090995788574
 40
3.000000000000
 41
1.000000000000
 50
0.000000000000
  1
角度
100
AcDbText
  0
TEXT
  5
646
100
AcDbEntity
  8
0
100
AcDbText
 62
     0
  6
CONTINUOUS
 10
609.309341430664
 20
167.690994262695
 40
3.000000000000
 41
1.000000000000
 50
0.000000000000
  1

100
AcDbText
  0
TEXT
  5
647
100
AcDbEntity
  8
0
100
AcDbText
 62
     0
  6
CONTINUOUS
 10
609.309341430664
 20
164.290992736816
 40
3.000000000000
 41
1.000000000000
 50
0.000000000000
  1

100
AcDbText
  0
TEXT
  5
648
100
AcDbEntity
  8
0
100
AcDbText
 62
     0
  6
CONTINUOUS
 10
609.309341430664
 20
160.890991210938
 40
3.000000000000
 41
1.000000000000
 50
0.000000000000
  1

100
AcDbText
  0
TEXT
  5
649
100
AcDbEntity
  8
0
100
AcDbText
 62
     0
  6
CONTINUOUS
 10
615.930019378662
 20
171.070930480957
 40
3.000000000000
 41
0.500000000000
 50
0.000000000000
  1
(度）
100
AcDbText
  0
TEXT
  5
64A
100
AcDbEntity
  8
0
100
AcDbText
 62
     0
  6
CONTINUOUS
 10
512.663543701172
 20
173.993225097656
 40
3.000000000000
 41
1.000000000000
 50
0.000000000000
  1
４
100
AcDbText
  0
TEXT
  5
64B
100
AcDbEntity
  8
0
100
AcDbText
 62
     0
  6
CONTINUOUS
 10
512.663543701172
 20
191.993225097656
 40
3.000000000000
 41
1.000000000000
 50
0.000000000000
  1
７
100
AcDbText
  0
TEXT
  5
64C
100
AcDbEntity
  8
0
100
AcDbText
 62
     0
  6
CONTINUOUS
 10
512.663543701172
 20
185.993225097656
 40
3.000000000000
 41
1.000000000000
 50
0.000000000000
  1
６
100
AcDbText
  0
TEXT
  5
64D
100
AcDbEntity
  8
0
100
AcDbText
 62
     0
  6
CONTINUOUS
 10
512.663543701172
 20
179.993225097656
 40
3.000000000000
 41
1.000000000000
 50
0.000000000000
  1
５
100
AcDbText
  0
TEXT
  5
64E
100
AcDbEntity
  8
0
100
AcDbText
 62
     0
  6
CONTINUOUS
 10
751.565915137529
 20
189.879509478807
 40
6.000000000000
 41
1.000000000000
 50
0.000000000000
  1
:
100
AcDbText
  0
TEXT
  5
64F
100
AcDbEntity
  8
0
100
AcDbText
 62
     0
  6
CONTINUOUS
 10
691.289345473051
 20
175.690792694688
 40
3.000000000000
 41
1.000000000000
 50
0.000000000000
  1
Ｈ
100
AcDbText
  0
TEXT
  5
650
100
AcDbEntity
  8
0
100
AcDbText
 62
     0
  6
CONTINUOUS
 10
693.541688382626
 20
175.893151625991
 40
2.000000000000
 41
1.000000000000
 50
0.000000000000
  1
Ｒ
100
AcDbText
  0
TEXT
  5
651
100
AcDbEntity
  8
0
100
AcDbText
 62
     0
  6
CONTINUOUS
 10
695.081375941634
 20
175.690792694688
 40
3.000000000000
 41
1.000000000000
 50
0.000000000000
  1
Ｃ
100
AcDbText
  0
TEXT
  5
652
100
AcDbEntity
  8
0
100
AcDbText
 62
     0
  6
CONTINUOUS
 10
512.663543701172
 20
167.993225097656
 40
3.000000000000
 41
1.000000000000
 50
0.000000000000
  1
３
100
AcDbText
  0
TEXT
  5
653
100
AcDbEntity
  8
0
100
AcDbText
 62
     0
  6
CONTINUOUS
 10
512.663543701172
 20
161.993225097656
 40
3.000000000000
 41
1.000000000000
 50
0.000000000000
  1
２
100
AcDbText
  0
TEXT
  5
654
100
AcDbEntity
  8
0
100
AcDbText
 62
     0
  6
CONTINUOUS
 10
512.663543701172
 20
155.993225097656
 40
3.000000000000
 41
1.000000000000
 50
0.000000000000
  1
１
100
AcDbText
  0
TEXT
  5
655
100
AcDbEntity
  8
0
100
AcDbText
 62
     0
  6
CONTINUOUS
 10
685.284211575985
 20
192.912036061287
 40
3.000000000000
 41
1.000000000000
 50
0.000000000000
  1
材質
100
AcDbText
  0
TEXT
  5
656
100
AcDbEntity
  8
0
100
AcDbText
 62
     0
  6
CONTINUOUS
 10
680.784211575985
 20
192.912036061287
 40
3.000000000000
 41
1.000000000000
 50
0.000000000000
  1

100
AcDbText
  0
TEXT
  5
657
100
AcDbEntity
  8
0
100
AcDbText
 62
     0
  6
CONTINUOUS
 10
684.488673895597
 20
183.498023152351
 40
3.000000000000
 41
1.000000000000
 50
0.000000000000
  1
表面
100
AcDbText
  0
TEXT
  5
658
100
AcDbEntity
  8
0
100
AcDbText
 62
     0
  6
CONTINUOUS
 10
684.488673895597
 20
179.998023152351
 40
3.000000000000
 41
1.000000000000
 50
0.000000000000
  1

100
AcDbText
  0
TEXT
  5
659
100
AcDbEntity
  8
0
100
AcDbText
 62
     0
  6
CONTINUOUS
 10
720.144805878401
 20
181.466659635305
 40
3.000000000000
 41
1.000000000000
 50
0.000000000000
  1
名
100
AcDbText
  0
TEXT
  5
65A
100
AcDbEntity
  8
0
100
AcDbText
 62
     0
  6
CONTINUOUS
 10
720.144805878401
 20
174.466659635305
 40
3.000000000000
 41
1.000000000000
 50
0.000000000000
  1
称
100
AcDbText
  0
TEXT
  5
65B
100
AcDbEntity
  8
0
100
AcDbText
 62
     0
  6
CONTINUOUS
 10
720.144805878401
 20
167.466659635305
 40
3.000000000000
 41
1.000000000000
 50
0.000000000000
  1

100
AcDbText
  0
TEXT
  5
65C
100
AcDbEntity
  8
0
100
AcDbText
 62
     0
  6
CONTINUOUS
 10
720.229400634766
 20
155.470214754343
 40
3.000000000000
 41
1.000000000000
 50
0.000000000000
  1
図
100
AcDbText
  0
TEXT
  5
65D
100
AcDbEntity
  8
0
100
AcDbText
 62
     0
  6
CONTINUOUS
 10
720.229400634766
 20
149.470214754343
 40
3.000000000000
 41
1.000000000000
 50
0.000000000000
  1
番
100
AcDbText
  0
TEXT
  5
65E
100
AcDbEntity
  8
0
100
AcDbText
 62
     0
  6
CONTINUOUS
 10
720.229400634766
 20
143.470214754343
 40
3.000000000000
 41
1.000000000000
 50
0.000000000000
  1

100
AcDbText
  0
TEXT
  5
65F
100
AcDbEntity
  8
0
100
AcDbText
 62
     0
  6
CONTINUOUS
 10
720.171737670898
 20
167.564802452922
 40
3.000000000000
 41
1.000000000000
 50
0.000000000000
  1
品
100
AcDbText
  0
TEXT
  5
660
100
AcDbEntity
  8
0
100
AcDbText
 62
     0
  6
CONTINUOUS
 10
720.171737670898
 20
161.564802452922
 40
3.000000000000
 41
1.000000000000
 50
0.000000000000
  1
名
100
AcDbText
  0
TEXT
  5
661
100
AcDbEntity
  8
0
100
AcDbText
 62
     0
  6
CONTINUOUS
 10
720.171737670898
 20
155.564802452922
 40
3.000000000000
 41
1.000000000000
 50
0.000000000000
  1

100
AcDbText
  0
TEXT
  5
662
100
AcDbEntity
  8
0
100
AcDbText
 62
     0
  6
CONTINUOUS
 10
720.133714064956
 20
192.998939514160
 40
3.000000000000
 41
1.000000000000
 50
0.000000000000
  1
個
100
AcDbText
  0
TEXT
  5
663
100
AcDbEntity
  8
0
100
AcDbText
 62
     0
  6
CONTINUOUS
 10
720.133714064956
 20
187.998939514160
 40
3.000000000000
 41
1.000000000000
 50
0.000000000000
  1
数
100
AcDbText
  0
TEXT
  5
664
100
AcDbEntity
  8
0
100
AcDbText
 62
     0
  6
CONTINUOUS
 10
720.133714064956
 20
182.998939514160
 40
3.000000000000
 41
1.000000000000
 50
0.000000000000
  1

100
AcDbText
  0
TEXT
  5
665
100
AcDbEntity
  8
0
100
AcDbText
 62
     0
  6
CONTINUOUS
 10
739.735122680664
 20
193.186332702637
 40
3.000000000000
 41
1.000000000000
 50
0.000000000000
  1
尺
100
AcDbText
  0
TEXT
  5
666
100
AcDbEntity
  8
0
100
AcDbText
 62
     0
  6
CONTINUOUS
 10
739.735122680664
 20
188.186332702637
 40
3.000000000000
 41
1.000000000000
 50
0.000000000000
  1
度
100
AcDbText
  0
TEXT
  5
667
100
AcDbEntity
  8
0
100
AcDbText
 62
     0
  6
CONTINUOUS
 10
739.735122680664
 20
183.186332702637
 40
3.000000000000
 41
1.000000000000
 50
0.000000000000
  1

100
AcDbText
  0
TEXT
  5
668
100
AcDbEntity
  8
0
100
AcDbText
 62
     0
  6
CONTINUOUS
 10
685.259636402130
 20
164.150868088007
 40
3.000000000000
 41
1.000000000000
 50
0.000000000000
  1
備
100
AcDbText
  0
TEXT
  5
669
100
AcDbEntity
  8
0
100
AcDbText
 62
     0
  6
CONTINUOUS
 10
685.259636402130
 20
158.150868088007
 40
3.000000000000
 41
1.000000000000
 50
0.000000000000
  1
考
100
AcDbText
  0
TEXT
  5
66A
100
AcDbEntity
  8
0
100
AcDbText
 62
     0
  6
CONTINUOUS
 10
685.259636402130
 20
152.150868088007
 40
3.000000000000
 41
1.000000000000
 50
0.000000000000
  1

100
AcDbText
  0
TEXT
  5
66B
100
AcDbEntity
  8
0
100
AcDbText
 62
     0
  6
CONTINUOUS
 10
684.633117407560
 20
171.121661305428
 40
3.000000000000
 41
1.000000000000
 50
0.000000000000
  1
処理
100
AcDbText
  0
TEXT
  5
66C
100
AcDbEntity
  8
0
100
AcDbText
 62
     0
  6
CONTINUOUS
 10
684.633117407560
 20
168.021662831306
 40
3.000000000000
 41
1.000000000000
 50
0.000000000000
  1

100
AcDbText
  0
TEXT
  5
66D
100
AcDbEntity
  8
0
100
AcDbText
 62
     0
  6
CONTINUOUS
 10
686.174644201994
 20
175.125697255135
 40
3.000000000000
 41
1.000000000000
 50
0.000000000000
  1
熱
100
AcDbText
  0
TEXT
  5
66E
100
AcDbEntity
  8
0
100
AcDbText
 62
     0
  6
CONTINUOUS
 10
684.453426092863
 20
179.698168873787
 40
3.000000000000
 41
1.000000000000
 50
0.000000000000
  1
処理
100
AcDbText
  0
TEXT
  5
66F
100
AcDbEntity
  8
0
100
AcDbText
 62
     0
  6
CONTINUOUS
 10
684.453426092863
 20
176.198168873787
 40
3.000000000000
 41
1.000000000000
 50
0.000000000000
  1

100
AcDbText
  0
TEXT
  5
670
100
AcDbEntity
  8
0
100
AcDbText
 62
     0
  6
CONTINUOUS
 10
684.656787872314
 20
148.054771423340
 40
3.000000000000
 41
1.000000000000
 50
0.000000000000
  1
部署
100
AcDbText
  0
TEXT
  5
671
100
AcDbEntity
  8
0
100
AcDbText
 62
     0
  6
CONTINUOUS
 10
684.656787872314
 20
151.582763671875
 40
3.000000000000
 41
1.000000000000
 50
0.000000000000
  1
設計
100
AcDbText
  0
TEXT
  5
672
100
AcDbEntity
  8
0
100
AcDbText
 62
     0
  6
CONTINUOUS
 10
773.917060852051
 20
156.019004821777
 40
3.000000000000
 41
1.000000000000
 50
0.000000000000
  1
SUB.
100
AcDbText
  0
TEXT
  5
673
100
AcDbEntity
  8
0
100
AcDbText
 62
     0
  6
CONTINUOUS
 10
668.959788739681
 20
165.411598205566
 40
3.000000000000
 41
1.000000000000
 50
0.000000000000
  1
設計
100
AcDbText
  0
TEXT
  5
674
100
AcDbEntity
  8
0
100
AcDbText
 62
     0
  6
CONTINUOUS
 10
648.619508624077
 20
165.411598205566
 40
3.000000000000
 41
1.000000000000
 50
0.000000000000
  1
製図
100
AcDbText
  0
TEXT
  5
675
100
AcDbEntity
  8
0
100
AcDbText
 62
     0
  6
CONTINUOUS
 10
628.772548675537
 20
165.411598205566
 40
3.000000000000
 41
1.000000000000
 50
0.000000000000
  1
検図
100
AcDbText
  0
TEXT
  5
676
100
AcDbEntity
  8
0
100
AcDbText
 62
     0
  6
CONTINUOUS
 10
608.887296438217
 20
165.500205993652
 40
3.000000000000
 41
1.000000000000
 50
0.000000000000
  1
承認
100
AcDbText
  0
TEXT
  5
677
100
AcDbEntity
  8
0
100
AcDbText
 62
     0
  6
CONTINUOUS
 10
591.214339822531
 20
149.473579406738
 40
3.000000000000
 41
1.000000000000
 50
0.000000000000
  1
年月日
100
AcDbText
  0
TEXT
  5
678
100
AcDbEntity
  8
0
100
AcDbText
 62
     0
  6
CONTINUOUS
 10
580.656602077186
 20
149.473579406738
 40
3.000000000000
 41
1.000000000000
 50
0.000000000000
  1
確認
100
AcDbText
  0
TEXT
  5
679
100
AcDbEntity
  8
0
100
AcDbText
 62
     0
  6
CONTINUOUS
 10
570.626598335803
 20
149.627548217773
 40
3.000000000000
 41
1.000000000000
 50
0.000000000000
  1
担当
100
AcDbText
  0
TEXT
  5
67A
100
AcDbEntity
  8
0
100
AcDbText
 62
     0
  6
CONTINUOUS
 10
530.288174919784
 20
149.473579406738
 40
3.000000000000
 41
1.000000000000
 50
0.000000000000
  1
訂正記事
100
AcDbText
  0
TEXT
  5
67B
100
AcDbEntity
  8
0
100
AcDbText
 62
     0
  6
CONTINUOUS
 10
510.802845224738
 20
149.473579406738
 40
3.000000000000
 41
1.000000000000
 50
0.000000000000
  1
記号
100
AcDbText
  0
TEXT
  5
67C
100
AcDbEntity
  8
0
100
AcDbText
 62
     0
  6
CONTINUOUS
 10
744.642778189108
 20
143.807472343743
 40
3.000000000000
 41
1.000000000000
 50
0.000000000000
  1
株式会社
100
AcDbText
  0
LINE
  5
67D
100
AcDbEntity
  8
0
100
AcDbLine
 62
     3
  6
CONTINUOUS
 10
784.000000000000
 20
148.000000000000
 11
404.000000000000
 21
148.000000000000
  0
LINE
  5
67E
100
AcDbEntity
  8
0
100
AcDbLine
 62
     3
  6
CONTINUOUS
 10
404.000000000000
 20
148.000000000000
 11
404.000000000000
 21
698.000000000000
  0
LINE
  5
67F
100
AcDbEntity
  8
0
100
AcDbLine
 62
     3
  6
CONTINUOUS
 10
784.000000000000
 20
698.000000000000
 11
404.000000000000
 21
698.000000000000
  0
LINE
  5
680
100
AcDbEntity
  8
0
100
AcDbLine
 62
     3
  6
CONTINUOUS
 10
784.000000000000
 20
148.000000000000
 11
784.000000000000
 21
698.000000000000
  0
TEXT
  5
681
100
AcDbEntity
  8
0
100
AcDbText
 62
     0
  6
CONTINUOUS
 10
456.462289661169
 20
419.466129451990
 40
6.000000000000
 41
1.000000000000
 50
0.000000000000
  1
アルミ冷却板
100
AcDbText
  0
LEADER
  5
682
100
AcDbEntity
  8
0
100
AcDbLeader
 62
     3
  6
CONTINUOUS
  3
DIM1
 76
     2
 10
511.789598
 20
386.549788
 10
483.513232
 20
414.826154
 77
     3
1001
ACAD
1000
DSTYLE
1002
{
1070
     6
1000
_OPEN
1070
    41
1040
3.000000000000
1002
}
  0
TEXT
  5
683
100
AcDbEntity
  8
0
100
AcDbText
 62
     0
  6
CONTINUOUS
 10
550.036362498423
 20
289.281818708777
 40
6.000000000000
 41
1.000000000000
 50
0.000000000000
  1
風向き
100
AcDbText
  0
LINE
  5
684
100
AcDbEntity
  8
0
100
AcDbLine
 62
     3
  6
CONTINUOUS
 10
544.523376406052
 20
293.530198791623
 11
542.023376406052
 21
298.530198791623
  0
LINE
  5
685
100
AcDbEntity
  8
0
100
AcDbLine
 62
     3
  6
CONTINUOUS
 10
542.023376406052
 20
298.530198791623
 11
539.523376406052
 21
293.530198791623
  0
LINE
  5
686
100
AcDbEntity
  8
0
100
AcDbLine
 62
     3
  6
CONTINUOUS
 10
540.773376406052
 20
288.530198791623
 11
540.773376406052
 21
293.530198791623
  0
LINE
  5
687
100
AcDbEntity
  8
0
100
AcDbLine
 62
     3
  6
CONTINUOUS
 10
543.273376406052
 20
288.530198791623
 11
543.273376406052
 21
293.530198791623
  0
LINE
  5
688
100
AcDbEntity
  8
0
100
AcDbLine
 62
     3
  6
CONTINUOUS
 10
540.773376406052
 20
293.530198791623
 11
539.523376406052
 21
293.530198791623
  0
LINE
  5
689
100
AcDbEntity
  8
0
100
AcDbLine
 62
     3
  6
CONTINUOUS
 10
543.273376406052
 20
293.530198791623
 11
544.523376406052
 21
293.530198791623
  0
LINE
  5
68A
100
AcDbEntity
  8
0
100
AcDbLine
 62
     3
  6
CONTINUOUS
 10
543.273376406052
 20
288.530198791623
 11
540.773376406052
 21
288.530198791623
  0
ENDSEC
  0
SECTION
  2
OBJECTS
  0
DICTIONARY
  5
C
100
AcDbDictionary
  3
ACAD_GROUP
350
D
  3
ACAD_MLINESTYLE
350
E
  0
DICTIONARY
  5
D
102
{ACAD_REACTORS
330
C
102
}
100
AcDbDictionary
  0
DICTIONARY
  5
E
102
{ACAD_REACTORS
330
C
102
}
100
AcDbDictionary
  3
STANDARD
350
1C
  0
MLINESTYLE
  5
1C
102
{ACAD_REACTORS
330
E
102
}
100
AcDbMlineStyle
  2
STANDARD
 70
     0
  3

 62
     0
 51
90.0
 52
90.0
 71
     2
 49
0.5
 62
   256
  6
BYLAYER
 49
-0.5
 62
   256
  6
BYLAYER
  0
ENDSEC
  0
EOF
